ギャグ
星野源

ADVANCED

Level: 5
BPM: 163
Notes: 262

1
口口口口 |----|
口口口口 |----|
口口口口 |----|
口口口口 |----|
2
口口口口 |①---|
②④③① |②---|
口口⑤口 |③---|
口口口口 |④-⑤-|
3
③口口③ |--①-|
口口口口 |----|
②口口② |②---|
口①①口 |③---|
4
口口口口 |①---|
①③④② |②---|
口⑤口口 |③---|
口口口口 |④-⑤-|
5
③口口③ |--①-|
口口口口 |----|
②口口② |②---|
口①①口 |③---|

BPM: 160
6
口③①口 |①---|
口口②口 |②---|
口④口口 |③---|
口口口口 |④---|

BPM: 164
7
口口口口 |①---|
口④口口 |②---|
口口②口 |③---|
口③①口 |④---|
8
口口口口 |①---|
口口②① |②---|
口④口③ |③---|
口口口口 |④---|
9
口口口口 |①---|
口③口口 |②-③-|
口口②口 |--④-|
④①①④ |----|

BPM: 163
10
口①③口 |①---|
口②口口 |②---|
口口④口 |③---|
口口口口 |④---|
11
口口口口 |①---|
口口④口 |②---|
口②口口 |③---|
口①③口 |④---|
12
口口口口 |①---|
①②口口 |②---|
③口④口 |③---|
口口口口 |④---|
13
口①①口 |①---|
口口口口 |----|
②口口② |②---|
口口口口 |----|
14
③①①② |①---|
口口口口 |----|
口口口口 |②---|
口口口口 |③---|
15
口口口口 |①---|
口②口① |②-③-|
口口③口 |--④-|
④口口⑤ |--⑤-|
16
①口口② |----|
口口口口 |----|
口口口口 |①---|
口口口口 |②---|
17
口口口口 |①---|
①口②口 |②-③-|
口③口口 |--④-|
⑤口口④ |--⑤-|
18
口口③口 |----|
口②口口 |----|
口口①口 |①-②-|
口口口口 |③---|
19
口③口口 |①---|
口口②口 |--②-|
口①口口 |----|
口口口口 |③---|
20
②口口① |①---|
口口口③ |②---|
口④口口 |③---|
口口口口 |--④-|
21
口口口口 |①---|
口口口口 |----|
口口口口 |----|
口口①口 |----|
22
②①①③ |①---|
口口口口 |----|
口口口口 |②---|
口口口口 |③---|
23
口口口口 |①---|
①口②口 |②-③-|
口③口口 |--④-|
⑤口口④ |--⑤-|
24
②口口① |----|
口口口口 |----|
口口口口 |①---|
口口口口 |②---|
25
口口口口 |①---|
口②口① |②-③-|
口口③口 |--④-|
④口口⑤ |--⑤-|
26
口③口口 |----|
口口②口 |----|
口①口口 |①-②-|
口口口口 |③---|
27
口口③口 |①---|
口②口口 |--②-|
口口①口 |----|
口口口口 |③---|
28
①口口② |①---|
③口④口 |②---|
口⑤口口 |③---|
口口口口 |④-⑤-|
29
口口口口 |----|
口口口口 |----|
口口口口 |----|
口口口口 |----|
30
口口口① |①---|
口口口① |----|
②口口口 |②---|
②口口口 |----|
31
②口口口 |①---|
②口口口 |--②-|
口口口① |----|
口口口① |----|
32
口①①口 |①---|
口②④口 |--②-|
口口③口 |③---|
口口口口 |--④-|
33
口口口口 |①---|
口②口口 |--②-|
口①③口 |③---|
口口口口 |----|
34
口口①① |①---|
口口口口 |----|
口口口口 |②---|
②②口口 |----|
35
②②口口 |①---|
口口口口 |----|
口口口口 |②---|
口口①① |----|
36
口口口口 |①---|
口①①口 |----|
口②②口 |②---|
口口口口 |----|
37
口口口口 |①---|
口口口口 |----|
②口口② |----|
口①①口 |②---|
38
口①①口 |①---|
口口口口 |----|
口口②口 |----|
口口口口 |--②-|
39
口口口口 |①-②-|
⑤口口④ |③-④-|
③口口② |⑤---|
口①口口 |----|
40
③③①① |①---|
口④②口 |②---|
口口口口 |③---|
口口口口 |④---|
41
口口口口 |①---|
口口口口 |②---|
口④②口 |③---|
③③①① |④---|
42
口①①口 |①---|
口口②口 |②---|
口③③口 |③---|
口④口口 |④---|
43
口②②口 |①---|
①口口① |--②-|
口口口口 |--③-|
口③③口 |----|
44
③口口① |①---|
③④②① |②---|
口口口口 |③---|
口口口口 |④---|
45
口口口口 |①---|
口口口口 |②---|
③④②① |③---|
③口口① |④---|
46
②口口② |①---|
口①①口 |②---|
口③③口 |③---|
④口口④ |④---|
47
口③③口 |①---|
②口口② |②---|
①口口① |③---|
口口口口 |----|
48
口口口口 |①---|
口口口口 |②---|
③③口④ |③---|
①①口② |④---|
49
③③口④ |①---|
①①口② |②---|
口口口口 |③---|
口口口口 |④---|
50
口口口口 |①---|
②口①① |②---|
④口③③ |③---|
口口口口 |④---|
51
口口口口 |①---|
②口口② |----|
口口口口 |②---|
口①①口 |----|
52
口①①口 |①---|
②口口② |②---|
口③③口 |③---|
④口口④ |④---|
53
④口口④ |①---|
口③③口 |②---|
②口口② |③---|
口①①口 |④---|
54
口口口口 |①---|
口口⑤口 |②---|
②④③① |③---|
口口口口 |④-⑤-|
55
口①①口 |--①-|
③口口③ |----|
口口口口 |②---|
②口口② |③---|
56
口口口口 |①---|
口⑤口口 |②---|
①③④② |③---|
口口口口 |④-⑤-|
57
口①①口 |--①-|
口口口口 |----|
口口口口 |②---|
②口口②

BPM: 153
口口口口
③口口③
口口口口
口口口口 |③---|

BPM: 105
58
口口口口 |①---|
口①①口 |----|
口口口口 |----|
口口口口 |----|

不確定度: 0

最終更新:2014年08月01日 22:39