Go to the top
倖田來未

BASIC

Level: 1
BPM: 158
Notes: 145

1
口口口口 |----|
口口口口 |----|
口口口口 |----|
口口口口 |----|
2
口口口口 |----|
口口口口 |----|
口口口口 |----|
口口口口 |----|
3
口口口口 |----|
口口口口 |----|
口口口口 |----|
口口口口 |----|
4
口口口口 |①---|
口口口口 |----|
口口②口 |②---|
口口①口 |----|
5
口口口口 |①---|
口口口② |②---|
口口口① |----|
口口口口 |----|
6
口口口口 |①---|
口口口口 |----|
口②口口 |②---|
口①口口 |----|
7
口口口口 |①---|
②口口口 |②---|
①口口口 |----|
口口口口 |----|
8
口口口口 |①---|
口口②口 |----|
口口①口 |②---|
口口口口 |----|
9
口口口② |①---|
口口口① |②---|
口口口口 |----|
口口口口 |----|
10
口口口口 |①---|
口②口口 |----|
口①口口 |②---|
口口口口 |----|
11
②口口口 |①---|
①口口口 |②---|
口口口口 |----|
口口口口 |----|
12
口口口口 |①---|
口口口口 |----|
口口②口 |②---|
口口①口 |----|
13
口口口口 |①---|
口口口② |②---|
口口口① |----|
口口口口 |----|
14
口口口口 |①---|
口口口口 |----|
口②口口 |②---|
口①口口 |----|
15
口口口口 |①---|
②口口口 |②---|
①口口口 |----|
口口口口 |----|
16
口口口口 |①---|
口口②口 |----|
口口①口 |②---|
口口口口 |----|
17
口口口② |①---|
口口口① |②---|
口口口口 |----|
口口口口 |----|
18
口口口口 |①---|
口②口口 |----|
口①口口 |②---|
口口口口 |----|
19
②口口口 |①---|
①口口口 |②---|
口口口口 |----|
口口口口 |----|
20
口口口② |①---|
口口口口 |----|
口口口① |②---|
口口口口 |----|
21
②口口口 |①---|
口口口口 |----|
①口口口 |②---|
口口口口 |----|
22
口口口② |①---|
口口口口 |----|
口口口口 |②---|
口口口① |----|
23
②口口口 |①---|
口口口口 |----|
口口口口 |②---|
①口口口 |----|
24
口口口② |①---|
口口口口 |----|
口口口① |②---|
口口口口 |----|
25
②口口口 |①---|
口口口口 |----|
①口口口 |②---|
口口口口 |----|
26
口口口② |①---|
口口口口 |----|
口口口口 |②---|
口口口① |----|
27
②口口口 |①---|
口口口口 |----|
口口口口 |②---|
①口口口 |----|
28
口口口② |①---|
口口口口 |----|
口口口① |②---|
口口口口 |----|
29
②口口口 |①---|
口口口口 |----|
①口口口 |②---|
口口口口 |----|
30
口口②口 |①---|
口口口口 |----|
口口①口 |②---|
口口口口 |----|
31
口②口口 |①---|
口口口口 |----|
口①口口 |②---|
口口口口 |----|
32
口口口② |①---|
口口口口 |----|
口口①口 |②---|
口口口口 |----|
33
②口口口 |①---|
口口口口 |----|
口①口口 |②---|
口口口口 |----|
34
口口口口 |①---|
口②①口 |②---|
口③④口 |③---|
口口口口 |④---|
35
口口口③ |①---|
口口口② |②---|
口口口① |③---|
口口口口 |----|
36
口①②口 |①---|
口③④口 |②---|
口口口口 |③---|
口口口口 |④---|
37
口口口口 |①---|
口口口口 |②---|
口①②口 |③---|
口③④口 |④---|
38
口口口口 |①---|
口③④口 |②---|
口①②口 |③---|
口口口口 |④---|
39
口①②口 |①---|
口③④口 |②---|
口口口口 |③---|
口口口口 |④---|
40
口口口口 |①---|
口口口口 |②---|
口①②口 |③---|
口③④口 |④---|
41
口口口口 |①---|
口③④口 |②---|
口①②口 |③---|
口口口口 |④---|
42
①口口① |①---|
口口口口 |----|
口口口口 |----|
口口口口 |----|
43
口口口口 |----|
口口口口 |----|
口口口口 |----|
口口口口 |----|
44
口口口口 |①---|
口口口口 |----|
口口②口 |②---|
口口①口 |----|
45
口口口口 |①---|
口口口② |②---|
口口口① |----|
口口口口 |----|
46
口口口口 |①---|
口口口口 |----|
口②口口 |②---|
口①口口 |----|
47
口口口口 |①---|
②口口口 |②---|
①口口口 |----|
口口口口 |----|
48
口口口口 |①---|
口口②口 |----|
口口①口 |②---|
口口口口 |----|
49
口口口② |①---|
口口口① |②---|
口口口口 |----|
口口口口 |----|
50
口口口口 |①---|
口②口口 |----|
口①口口 |②---|
口口口口 |----|
51
②口口口 |①---|
①口口口 |②---|
口口口口 |----|
口口口口 |----|
52
口口口口 |①---|
口口口口 |----|
口口②口 |②---|
口口①口 |----|
53
口口口口 |①---|
口口口② |②---|
口口口① |----|
口口口口 |----|
54
口口口口 |①---|
口口口口 |----|
口②口口 |②---|
口①口口 |----|
55
口口口口 |①---|
②口口口 |②---|
①口口口 |----|
口口口口 |----|
56
口口口口 |①---|
口口②口 |----|
口口①口 |②---|
口口口口 |----|
57
口口口② |①---|
口口口① |②---|
口口口口 |----|
口口口口 |----|
58
口口口口 |①---|
口②口口 |----|
口①口口 |②---|
口口口口 |----|
59
②口口口 |①---|
①口口口 |②---|
口口口口 |----|
口口口口 |----|
60
口口口口 |①---|
口口口口 |----|
口②①口 |②---|
口口口口 |----|
61
口②③口 |①---|
口口①口 |----|
口口口口 |②---|
口口口口 |③---|
62
口口口口 |①---|
口口口口 |----|
口①②口 |②---|
口口口口 |----|
63
口③②口 |①---|
口①口口 |----|
口口口口 |②---|
口口口口 |③---|
64
口口口口 |①---|
口口口口 |----|
口②①口 |②---|
口口口口 |----|
65
口②③口 |①---|
口口①口 |----|
口口口口 |②---|
口口口口 |③---|
66
口口口口 |①---|
口口口口 |----|
口①②口 |②---|
口口口口 |----|
67
口③②口 |①---|
口①口口 |----|
口口口口 |②---|
口口口口 |③---|

不確定度: 0

最終更新:2014年08月01日 22:38