Go to the top
倖田來未

ADVANCED

Level: 5
BPM: 158
Notes: 296

1
口口口口 |----|
口口口口 |----|
口口口口 |----|
口口口口 |----|
2
口口口口 |----|
口口口口 |----|
口口口口 |----|
口口口口 |----|
3
口口口口 |----|
口口口口 |----|
口口口口 |----|
口口口口 |----|
4
④口口② |①---|
口⑥口口 |②-③-|
③口⑤① |--④-|
口口口口 |⑤-⑥-|
5
口②①② |①---|
口口口口 |②---|
口口口口 |----|
口口口口 |----|
6
②口口④ |①---|
口口⑥口 |②-③-|
①⑤口③ |--④-|
口口口口 |⑤-⑥-|
7
②①②口 |①---|
口口口口 |②---|
口口口口 |----|
口口口口 |----|
8
口⑤③口 |①---|
口口⑥口 |②-③-|
口④②口 |--④-|
口①①口 |⑤-⑥-|
9
②口口② |①---|
口①口口 |②---|
口口口口 |----|
口口口口 |----|
10
⑤口⑥④ |①---|
口③②口 |②-③-|
口①①口 |--④-|
口口口口 |⑤-⑥-|
11
口①口口 |①---|
口②②口 |②---|
口口口口 |----|
口口口口 |----|
12
④口口② |①---|
口⑥口口 |②-③-|
③口⑤① |--④-|
口口口口 |⑤-⑥-|
13
口②①② |①---|
口口口口 |②---|
口口口口 |----|
口口口口 |----|
14
②口口④ |①---|
口口⑥口 |②-③-|
①⑤口③ |--④-|
口口口口 |⑤-⑥-|
15
②①②口 |①---|
口口口口 |②---|
口口口口 |----|
口口口口 |----|
16
口⑤③口 |①---|
口口⑥口 |②-③-|
口④②口 |--④-|
口①①口 |⑤-⑥-|
17
②口口② |①---|
口①口口 |②---|
口口口口 |----|
口口口口 |----|
18
⑤口⑥④ |①---|
口③②口 |②-③-|
口①①口 |--④-|
口口口口 |⑤-⑥-|
19
口①口口 |①---|
口②②口 |②---|
口口口口 |----|
口口口口 |----|
20
口口口口 |①---|
口口口口 |②---|
④口⑤③ |③-④-|
口②①口 |⑤---|
21
⑤④④⑤ |①-②-|
①③口② |③---|
口口口口 |④---|
口口口口 |⑤---|
22
口口口口 |①---|
口口口口 |②---|
③⑤口④ |③-④-|
口①②口 |⑤---|
23
⑤④④⑤ |①-②-|
②口③① |③---|
口口口口 |④---|
口口口口 |⑤---|
24
口口口口 |①---|
口口口口 |②---|
④口⑤③ |③-④-|
口②①口 |⑤---|
25
⑤④④⑤ |①-②-|
①③口② |③---|
口口口口 |④---|
口口口口 |⑤---|
26
口口口口 |①---|
口口口口 |②---|
③⑤口④ |③-④-|
口①②口 |⑤---|
27
⑤④④⑤ |①-②-|
②口③① |③---|
口口口口 |④---|
口口口口 |⑤---|
28
口口口口 |①---|
口口口口 |----|
口口②② |②---|
口口口① |----|
29
口口口口 |①---|
口口口口 |----|
②②口口 |②---|
①口口口 |----|
30
口口口口 |①---|
口口②② |----|
口口口口 |②---|
口口口① |----|
31
口口口口 |①---|
②②口口 |----|
口口口口 |②---|
①口口口 |----|
32
口口②② |①---|
口口口口 |----|
口口口口 |②---|
口口口① |----|
33
②②口口 |①---|
口口口口 |----|
口口口口 |②---|
①口口口 |----|
34
口④口口 |①---|
口口③口 |②---|
口②口口 |③---|
口口①口 |④---|
35
口口①口 |①---|
口②口口 |②---|
口③③口 |③---|
口口口口 |----|
36
口口口口 |①---|
口口口口 |②---|
口口口口 |③---|
②④③① |④---|
37
口口口口 |①---|
口口口口 |②---|
④②①③ |③---|
口口口口 |④---|
38
口口口口 |①---|
口口口口 |②---|
口口口口 |③---|
②④③① |④---|
39
口口口口 |①---|
口口口口 |②---|
④②①③ |③---|
口口口口 |④---|
40
口口口口 |①---|
口口口口 |②---|
口口口口 |③---|
②④③① |④---|
41
口口口口 |①---|
口④③口 |②---|
口②①口 |③---|
口口口口 |④---|
42
①①①① |①---|
口口口口 |----|
口口口口 |----|
口口口口 |----|
43
口口口口 |----|
口口口口 |----|
口口口口 |----|
口口口口 |----|
44
④口口② |①---|
口⑥口口 |②-③-|
③口⑤① |--④-|
口口口口 |⑤-⑥-|
45
口②①② |①---|
口口口口 |②---|
口口口口 |----|
口口口口 |----|
46
②口口④ |①---|
口口⑥口 |②-③-|
①⑤口③ |--④-|
口口口口 |⑤-⑥-|
47
②①②口 |①---|
口口口口 |②---|
口口口口 |----|
口口口口 |----|
48
口⑤③口 |①---|
口口⑥口 |②-③-|
口④②口 |--④-|
口①①口 |⑤-⑥-|
49
②口口② |①---|
口①口口 |②---|
口口口口 |----|
口口口口 |----|
50
⑤口⑥④ |①---|
口③②口 |②-③-|
口①①口 |--④-|
口口口口 |⑤-⑥-|
51
口①口口 |①---|
口②②口 |②---|
口口口口 |----|
口口口口 |----|
52
④口口② |①---|
口⑥口口 |②-③-|
③口⑤① |--④-|
口口口口 |⑤-⑥-|
53
口②①② |①---|
口口口口 |②---|
口口口口 |----|
口口口口 |----|
54
②口口④ |①---|
口口⑥口 |②-③-|
①⑤口③ |--④-|
口口口口 |⑤-⑥-|
55
②①②口 |①---|
口口口口 |②---|
口口口口 |----|
口口口口 |----|
56
口⑤③口 |①---|
口口⑥口 |②-③-|
口④②口 |--④-|
口①①口 |⑤-⑥-|
57
②口口② |①---|
口①口口 |②---|
口口口口 |----|
口口口口 |----|
58
⑤口⑥④ |①---|
口③②口 |②-③-|
口①①口 |--④-|
口口口口 |⑤-⑥-|
59
口①口口 |①---|
口②②口 |②---|
口口口口 |----|
口口口口 |----|
60
口口口口 |①---|
口口口口 |②---|
口④③口 |③---|
口②①口 |④---|
61
④③③④ |①---|
口②①口 |②---|
口口口口 |③---|
口口口口 |④---|
62
口口口口 |①---|
口口口口 |②---|
④口口③ |③---|
②口口① |④---|
63
④③③④ |①---|
②口口① |②---|
口口口口 |③---|
口口口口 |④---|
64
口口口口 |①---|
口口口口 |②---|
口④③口 |③---|
口②①口 |④---|
65
④③③④ |①---|
口②①口 |②---|
口口口口 |③---|
口口口口 |④---|
66
口口口口 |①---|
口口口口 |②---|
④口口③ |③---|
②口口① |④---|
67
④③③④ |①---|
②④④① |②---|
口口口口 |③---|
口口口口 |④---|

不確定度: 0

最終更新:2014年08月01日 22:38