でんでんぱっしょん
でんぱ組.inc

BASIC

Level: 3
BPM: 157-186
Notes: 199

BPM: 157
1
口口口口 |----|
口口口口 |----|
口口口口 |----|
口口口口 |----|
2
口口口口 |①---|
①口口口 |----|
口口口口 |----|
口口口口 |----|
3
口口口口 |①---|
口口口① |----|
口口口口 |----|
口口口口 |----|
4
口口口口 |①---|
口口口口 |----|
①口口口 |----|
口口口口 |----|
5
口口口口 |①---|
口口口口 |----|
口口口① |----|
口口口口 |----|
6
口口口口 |①---|
①②③④ |②---|
口口口口 |③---|
口口口口 |④---|
7
口口口口 |①---|
口口口口 |②---|
④③②① |③---|
口口口口 |④---|
8
口口口口 |①---|
①②③④ |②---|
口口口口 |③---|
口口口口 |④---|

BPM: 186
9
口①①口 |①---|
口口口口 |----|
口口口口 |----|
口口口口 |----|
10
口口口口 |①---|
①口口口 |②---|
口②口口 |③---|
口口③口 |----|
11
口口口口 |①---|
口口口① |②---|
口口②口 |③---|
口③口口 |----|
12
口口口口 |①---|
①口口口 |②---|
口②口口 |③---|
口口③口 |----|
13
口口口口 |①---|
口①①口 |----|
口②②口 |②---|
口口口口 |----|
14
口口③口 |①---|
口②口口 |②---|
①口口口 |③---|
口口口口 |----|
15
口③口口 |①---|
口口②口 |②---|
口口口① |③---|
口口口口 |----|
16
①口口① |①---|
②口口② |----|
口口口口 |②---|
口口口口 |----|
17
口口口口 |①---|
口口口口 |----|
①口口① |②---|
②口口② |----|
18
口口口口 |①---|
口口口口 |----|
口口口口 |----|
口①①口 |----|
19
口口口口 |①---|
口①①口 |----|
口口口口 |----|
口口口口 |----|
20
口①口口 |①---|
口口口口 |----|
口口口口 |----|
口口口口 |----|
21
口口①口 |①---|
口口口口 |----|
口口口口 |----|
口口口口 |----|
22
口口口口 |①---|
①②口口 |----|
口口口口 |②---|
口口口口 |----|
23
口口口口 |①---|
口口①② |----|
口口口口 |②---|
口口口口 |----|
24
口口口口 |①---|
口口口口 |----|
口①②口 |②---|
口口口口 |----|
25
口口口口 |①---|
口口口口 |----|
口口口口 |②---|
口①②口 |----|
26
口口口口 |①---|
口口口口 |----|
口口口口 |②---|
①口口② |----|
27
口口口口 |①---|
口口口口 |----|
口①①口 |----|
口口口口 |----|
28
口②②口 |①---|
口①口口 |----|
口口口口 |②---|
口口口口 |----|
29
口②②口 |①---|
口口①口 |----|
口口口口 |②---|
口口口口 |----|
30
口口口口 |①---|
①口口① |----|
②口口② |②---|
口口口口 |----|
31
口口口口 |①---|
口口口口 |----|
口口口口 |②---|
①②②① |----|
32
口口口口 |①---|
口口口口 |----|
口①②口 |②---|
口口口口 |----|
33
口口口口 |①---|
口①②口 |----|
口口口口 |②---|
口口口口 |----|
34
口①②口 |①---|
口口口口 |----|
口口口口 |②---|
口口口口 |----|
35
①口口① |①---|
口口口口 |----|
口口口口 |----|
口口口口 |----|
36
口口口口 |①---|
口①①口 |----|
口口口口 |----|
口口口口 |----|
37
口口口口 |①---|
口口口口 |----|
口①①口 |----|
口口口口 |----|
38
口口口口 |①---|
①②口口 |----|
口口口口 |②---|
口口口口 |----|
39
口口口口 |①---|
口口①② |----|
口口口口 |②---|
口口口口 |----|
40
口口口口 |①---|
口口口口 |----|
口①①口 |----|
口口口口 |----|
41
口口口口 |①---|
口③口口 |--②-|
口口②口 |----|
口①①口 |--③-|
42
口②①口 |----|
口口口口 |--①-|
口口口口 |----|
口口口口 |--②-|
43
口口口口 |----|
口口①口 |--①-|
口②口口 |----|
口口口口 |--②-|
44
口口口口 |----|
口口口口 |--①-|
口口口口 |----|
口口①口 |----|
45
口口口口 |①---|
②口口② |----|
①口口① |②---|
口口口口 |----|
46
口口口口 |①---|
口②②口 |----|
口①①口 |②---|
口口口口 |----|
47
①②③④ |①---|
口口口口 |②---|
口口口口 |③---|
口口口口 |④---|
48
口口口口 |①---|
口①①口 |----|
口②②口 |②---|
口口口口 |----|
49
口口口口 |①---|
口口口口 |----|
口口口口 |②---|
口①②口 |----|
50
口口口口 |①---|
口口口口 |----|
①口口① |----|
口口口口 |----|
51
口口口口 |①---|
①口口口 |②---|
口②口口 |③---|
口口③口 |----|
52
口口口口 |①---|
口口口① |②---|
口口②口 |③---|
口③口口 |----|
53
口④口口 |①---|
口口③口 |②---|
口②口口 |③---|
口口①口 |④---|
54
①口口① |①---|
口口口口 |----|
口口口口 |----|
口口口口 |----|
55
①②③④ |①---|
口口口口 |②---|
口口口口 |③---|
口口口口 |④---|
56
口口口口 |①---|
口①①口 |----|
口②②口 |②---|
口口口口 |----|
57
口口口口 |①---|
口口口口 |----|
口口口口 |②---|
口①②口 |----|
58
口口口口 |①---|
口口口口 |----|
①口口① |----|
口口口口 |----|
59
口口口口 |①---|
口②②口 |----|
口①①口 |②---|
口口口口 |----|
60
②①①② |①---|
口口口口 |----|
口口口口 |②---|
口口口口 |----|
61
口口口口 |①---|
①②③口 |②---|
口口口口 |③---|
口口口口 |----|
62
口口口口 |①---|
口口口口 |②---|
④③②① |③---|
口口口口 |④---|
63
口口口口 |①---|
①②③④ |②---|
口口口口 |③---|
口口口口 |④---|
64
口口③口 |①---|
口②口口 |----|
口①①口 |②---|
口口口口 |③---|
65
①口口① |①---|
口口口口 |----|
口口口口 |----|
口口口口 |----|
66
口口口口 |①---|
口口口① |②---|
口口②口 |③---|
口③口口 |----|
67
口口口口 |①---|
①口口口 |②---|
口②口口 |③---|
口口③口 |----|
68
口口口口 |①---|
口①①口 |----|
口②②口 |②---|
口口口口 |----|
69
口口③口 |①---|
口②口口 |②---|
①口口口 |③---|
口口口口 |----|
70
口③口口 |①---|
口口②口 |②---|
口口口① |③---|
口口口口 |----|
71
①口口① |①---|
②口口② |----|
口口口口 |②---|
口口口口 |----|
72
口口口口 |①---|
口口口口 |----|
①口口① |②---|
②口口② |----|
73
口口口口 |①---|
口口口口 |----|
口口口口 |----|
口①①口 |----|

不確定度: 0

最終更新:2014年08月01日 22:35