でんでんぱっしょん
でんぱ組.inc

ADVANCED

Level: 6
BPM: 157-186
Notes: 337

BPM: 157
1
口口口口 |----|
口口口口 |----|
口口口口 |----|
口口口口 |----|
2
口口①口 |①---|
口②口口 |--②-|
口口③口 |----|
口口口口 |③---|
3
口①口口 |--①-|
口口②口 |----|
口③口口 |②---|
口口口口 |③---|
4
口口口① |①---|
②口口口 |--②-|
口口口③ |----|
口口口口 |③---|
5
口口口口 |①---|
口口口口 |②---|
口口口口 |③---|
①②③④ |④---|
6
②口口① |①---|
口④③口 |②---|
口口口口 |③---|
口口口口 |④---|
7
口口口口 |①---|
口口口口 |②---|
口②①口 |③---|
④口口③ |④---|
8
口口口口 |①---|
口④③口 |②---|
②口口① |③---|
口口口口 |④---|

BPM: 186
9
①口口① |①---|
口口口口 |----|
口口口口 |----|
口口口口 |----|
10
口口③③ |①---|
口口口② |②---|
④口口① |③---|
口口口口 |--④-|
11
③③口口 |--①-|
②口①口 |②---|
口口口口 |③---|
口口口口 |----|
12
口口③③ |①---|
口④口② |②---|
口口口① |③---|
口口口口 |--④-|
13
口口口口 |--①-|
口口口口 |②---|
口②①口 |③---|
④③③④ |④---|
14
口口③③ |①---|
口口口② |②---|
④口口① |③---|
口口口口 |--④-|
15
③③④④ |--①-|
②口①口 |②---|
口口口口 |③---|
口口口口 |④---|
16
口口口口 |①---|
口①①口 |----|
口②②口 |②---|
口口口口 |----|
17
口口口口 |①---|
①口口① |----|
②口口② |②---|
口口口口 |----|
18
口口口口 |①---|
口口口口 |----|
口口口口 |----|
①口口① |----|
19
口①①口 |①---|
口口口口 |----|
口口口口 |----|
口口口口 |----|
20
口口①① |①---|
口口②口 |----|
口③口口 |②---|
口口口口 |③---|
21
口口②② |①---|
口口口口 |----|
口口口口 |②---|
口口①口 |----|
22
②②口口 |①---|
口口口口 |----|
口口口口 |②---|
①①口口 |----|
23
口口口口 |①---|
③①①③ |②---|
口口口口 |③---|
④②②④ |④---|
24
口口③③ |①---|
口口②口 |②---|
口口①口 |③---|
口口口口 |----|
25
③③口口 |①---|
口②口口 |②---|
口①口口 |③---|
口口口口 |----|
26
口口口口 |①---|
①口口① |----|
②口口② |②---|
口口口口 |----|
27
口口口口 |①---|
口口口口 |----|
口口口口 |----|
口①①口 |----|
28
④④口口 |①---|
口口③口 |②---|
口②口口 |③---|
口口①口 |④---|
29
口口④④ |①---|
口③口口 |②---|
口口②口 |③---|
口①口口 |④---|
30
②②④④ |①---|
口口口口 |②---|
口①③口 |③---|
口口口口 |④---|
31
口口口口 |①---|
口③③口 |②---|
①口口② |③---|
口口口口 |----|
32
口口口口 |①---|
口口口口 |②---|
口口口口 |③---|
③④②① |④---|
33
口口口口 |①---|
口①①口 |②---|
③②②③ |③---|
口口口口 |----|
34
④口口③ |①---|
②口口① |②---|
口口口口 |③---|
口口口口 |④---|
35
口口口口 |①---|
口口口口 |----|
口①①口 |----|
口口口口 |----|
36
口①①口 |①---|
口②②口 |----|
口③③口 |②---|
口口口口 |--③-|
37
②②①① |--①-|
口口口口 |----|
口口口口 |--②-|
口口口口 |----|
38
口口口口 |①---|
口口口口 |②---|
④③②① |③---|
口口口口 |④---|
39
口口口口 |①---|
口①①口 |----|
口②②口 |②---|
口口口口 |----|
40
口①①口 |①---|
口②②口 |----|
口③③口 |②---|
口口口口 |--③-|
41
②②①① |--①-|
口口口口 |----|
口口口口 |--②-|
口口口口 |----|
42
口口口口 |--①-|
②口口① |----|
②口口① |--②-|
口口口口 |----|
43
口口②② |--①-|
口口口口 |----|
口口口口 |--②-|
口口①① |----|
44
②②口口 |--①-|
口口口口 |----|
口口口口 |--②-|
①①口口 |----|
45
⑥口口⑥ |①-②-|
口②①口 |③-④-|
口④③口 |⑤---|
口口⑤口 |--⑥-|
46
口口①口 |--①-|
口②口口 |②-③-|
口口③口 |④---|
口④口口 |----|
47
口口口口 |①-②-|
④③②① |③-④-|
⑧⑦⑥⑤ |⑤-⑥-|
口口口口 |⑦-⑧-|
48
口②②口 |--①-|
③口口④ |----|
口口口口 |②---|
口①①口 |③-④-|
49
口口口口 |①-②-|
口①②⑥ |--③-|
⑤口口口 |--④-|
口③③④ |⑤-⑥-|
50
①口口口 |①---|
口口口口 |----|
口口口口 |----|
口口口口 |----|
51
口口口③ |①---|
口口口③ |②---|
②②口口 |③---|
①①口口 |----|
52
③口口口 |①---|
③口口口 |②---|
口口②② |③---|
口口①① |----|
53
口②①口 |①---|
口①②口 |②---|
口④③口 |③---|
口③④口 |④---|
54
口口口口 |①---|
①口口① |----|
口口口口 |----|
口口口口 |----|
55
④口口④ |①---|
③口口③ |②---|
②口口② |③---|
①口口① |④---|
56
口口口口 |①---|
②①①③ |----|
口口口口 |----|
口口口口 |②-③-|
57
④③③口 |①-②-|
口①②⑤ |--③-|
⑥口口口 |--④-|
口口口口 |⑤-⑥-|
58
口口口口 |①---|
口③④口 |----|
口口②口 |--②-|
口口口① |③-④-|
59
①①③③ |①---|
口口口口 |②---|
口口口口 |③---|
②②④④ |④---|
60
口⑤⑤口 |①--②|
①③口② |--③-|
口口④口 |④---|
口口口口 |--⑤-|
61
①口口口 |--①-|
口⑦口② |②-③-|
③口⑥口 |④-⑤-|
口⑤口④ |⑥-⑦-|
62
口口⑦① |--①-|
②口口口 |②-③-|
⑥口口③ |④-⑤-|
④口口⑤ |⑥-⑦-|
63
口④口⑤ |--①-|
⑥口③口 |②-③-|
口②口⑦ |④-⑤-|
口口①口 |⑥-⑦-|
64
口口口口 |--①-|
口④⑤⑥ |②-③-|
口口口口 |④-⑤-|
①②③口 |⑥---|
65
口口口口 |①---|
口口口口 |----|
②①①口 |----|
口口口口 |--②-|
66
③③口口 |--①-|
②口①口 |②---|
口口口口 |③---|
口口口口 |----|
67
口口③③ |①---|
口④口② |②---|
口口口① |③---|
口口口口 |--④-|
68
口口口口 |--①-|
口口口口 |②---|
口②①口 |③---|
④③③④ |④---|
69
口口③③ |①---|
口口口② |②---|
④口口① |③---|
口口口口 |--④-|
70
③③④④ |--①-|
②口①口 |②---|
口口口口 |③---|
口口口口 |④---|
71
口口口口 |①---|
口①①口 |----|
口②②口 |②---|
口口口口 |----|
72
口口口口 |①---|
①口口① |----|
②口口② |②---|
口口口口 |----|
73
口口口口 |①---|
口口口口 |----|
口口口口 |----|
①口口① |----|

不確定度: 0

最終更新:2014年08月01日 22:34