caramel ribbon
P*Light

BASIC

Level: 4
BPM: 175
Notes: 298

1
口口口口 |----|
口口口口 |----|
口口口口 |----|
口口口口 |----|
2
口口口口 |①---|
②①①② |----|
②口口② |----|
口口口口 |②---|
3
口口口口 |①---|
口口口口 |----|
口口②口 |②---|
口口①口 |----|
4
口口④口 |①---|
①②③口 |②---|
口口口口 |③---|
口口口口 |④---|
5
口①口口 |①---|
口②口口 |----|
口口口口 |②---|
口口口口 |----|
6
口口口口 |①---|
口口口口 |----|
口①口口 |②---|
口②口口 |----|
7
口口口口 |①---|
口①①口 |----|
口口口口 |----|
口口口口 |----|
8
口口口口 |①---|
口口口口 |----|
口①①口 |----|
口口口口 |----|
9
口口④口 |①---|
口③口口 |②---|
口口②口 |③---|
口①①口 |④---|
10
①口口① |①---|
②口口② |----|
②口口② |----|
口口口口 |②---|
11
口口口口 |①---|
口④②口 |②---|
口③①口 |③---|
口口口口 |④---|
12
①口口② |①---|
③口口④ |②---|
口口口口 |③---|
口口口口 |④---|
13
口口口口 |①---|
口③①口 |②---|
口④②口 |③---|
口口口口 |④---|
14
口口口口 |①---|
④口口④ |②---|
④口口④ |③---|
②③③① |④---|
15
口口口口 |①---|
口④②口 |②---|
口③①口 |③---|
口口口口 |④---|
16
①口口② |①---|
③口口④ |②---|
口口口口 |③---|
口口口口 |④---|
17
口口口口 |①---|
口③①口 |②---|
口④②口 |③---|
口口口口 |④---|
18
口口口口 |①---|
④口口④ |②---|
④口口④ |③---|
②③③① |④---|
19
口口③④ |①---|
口口②口 |②---|
口口①口 |③---|
口口口口 |④---|
20
④③口口 |①---|
口②口口 |②---|
口①口口 |③---|
口口口口 |④---|
21
口口口口 |①---|
④②①③ |②---|
口口口口 |③---|
口口口口 |④---|
22
口③③口 |①---|
④②②④ |②---|
④①①④ |③---|
口口口口 |④---|
23
口口③④ |①---|
口口②口 |②---|
口口①口 |③---|
口口口口 |④---|
24
④③口口 |①---|
口②口口 |②---|
口①口口 |③---|
口口口口 |④---|
25
口口口口 |①---|
口③①口 |②---|
口④②口 |③---|
口口口口 |④---|
26
③口口③ |①---|
②口口② |②---|
①口口① |③---|
口口口口 |----|
27
口口口口 |①---|
口口③④ |②---|
口口①② |③---|
口口口口 |④---|
28
口口口口 |①---|
④③口口 |②---|
②①口口 |③---|
口口口口 |④---|
29
口口①口 |①---|
口口②口 |②---|
口口③口 |③---|
口口④口 |④---|
30
口④口口 |①---|
口③口口 |②---|
口②口口 |③---|
口①口口 |④---|
31
口口口口 |①---|
④③②① |②---|
口口口口 |③---|
口口口口 |④---|
32
口口口口 |①---|
口口口口 |②---|
①②③④ |③---|
口口口口 |④---|
33
口口口口 |①---|
口口口口 |②---|
口④③口 |③---|
口②①口 |④---|
34
口口口口 |①---|
口①①口 |----|
口②②口 |----|
口口口口 |②---|
35
③口口② |①---|
口①①口 |②---|
口口口口 |----|
口口口口 |③---|
36
口口口口 |----|
③②①口 |①---|
口口口口 |②---|
口口口口 |③---|
37
口口口口 |①---|
③口口② |②---|
口①①口 |----|
口口口口 |③---|
38
口口口口 |----|
口口口口 |①---|
③②①口 |②---|
口口口口 |③---|
39
口口口口 |①---|
口口口口 |②---|
③口口② |----|
口①①口 |③---|
40
口口口口 |----|
口口口口 |①---|
口口口口 |②---|
③②①口 |③---|
41
口口口口 |①---|
口④③口 |②---|
口②①口 |③---|
口口口口 |④---|
42
口①①口 |①---|
②口口② |----|
②口口② |----|
口口口口 |②---|
43
口口口口 |①---|
口①①口 |----|
口口口口 |----|
口口口口 |----|
44
口口口口 |①---|
口口口口 |----|
口口①口 |----|
口口口口 |----|
45
口口口口 |①---|
口口口口 |----|
口①口口 |----|
口口口口 |----|
46
口口口口 |①---|
口口口口 |----|
口口口口 |----|
口口①口 |----|
47
口口口口 |①---|
口口口口 |----|
口口口口 |----|
口①口口 |----|
48
口口口口 |①---|
口口口口 |----|
口口①口 |----|
口口口口 |----|
49
口口口口 |①---|
口口口口 |----|
口①口口 |----|
口口口口 |----|
50
口口口口 |①---|
①口口① |②---|
②④④② |③---|
③口口③ |④---|
51
口口口口 |①---|
口①①口 |----|
口口口口 |----|
口口口口 |----|
52
口口口口 |①---|
口口口口 |----|
口①①口 |----|
口口口口 |----|
53
口口口口 |①---|
口口口口 |----|
口口口口 |----|
口①①口 |----|
54
④口口④ |①---|
③口口③ |②---|
②口口② |③---|
①口口① |④---|
55
口口口口 |①---|
口①①口 |----|
口口口口 |----|
口口口口 |----|
56
口口口口 |①---|
口口口口 |----|
口①①口 |----|
口口口口 |----|
57
口口口口 |①---|
口口口口 |----|
②口口② |②---|
口①①口 |----|
58
①口口① |①---|
②口口② |----|
②口口② |----|
口口口口 |②---|
59
口口口② |①---|
口口①④ |②---|
口口③口 |③---|
口口口口 |④---|
60
口①口口 |①---|
口口②口 |②---|
口③口口 |③---|
口口④口 |④---|
61
口口④③ |①---|
口口口② |②---|
口口口① |③---|
口口口口 |④---|
62
口口口口 |①---|
④口①④ |②---|
④口②④ |③---|
口口③口 |④---|
63
②口口口 |①---|
④①口口 |②---|
口③口口 |③---|
口口口口 |④---|
64
口口①口 |①---|
口②口口 |②---|
口口③口 |③---|
口④口口 |④---|
65
口④口口 |①---|
口口③口 |②---|
口②口口 |③---|
口口①口 |④---|
66
①口口① |①---|
②口口② |----|
②口口② |----|
口口口口 |②---|
67
口口口口 |①---|
口②①口 |②---|
口口口口
口口口口

口口口口
口口⑤口
口④③口 |③---|
口口口口 |④-⑤-|
68
口口口口 |----|
②口口② |----|
②口口② |①---|
①口口① |②---|
69
口口①口 |①---|
口②口口 |②---|
口口③口 |③---|
口④口口 |④---|
70
口口口口 |①---|
③口口③ |----|
③②②③ |②---|
①口口① |③---|
71
口①①口 |①---|
口②②口 |----|
口口口口 |②---|
口口口口 |----|
72
口口口口 |①---|
口口口口 |----|
口①①口 |②---|
口②②口 |----|
73
④口口口 |①---|
口口口③ |②---|
②口口口 |③---|
口口口① |④---|
74
口口口口 |①---|
②①①② |----|
②口口② |----|
口口口口 |②---|
75
口口口口 |①---|
口口口口 |----|
口①①口 |----|
口口口口 |----|

不確定度: 0

最終更新:2014年08月01日 22:33