小野秀幸

ADVANCED

Level: 7
BPM: 178
Notes: 444

1
口口口口 |----|
口口口口 |----|
口口口口 |----|
口口口口 |----|
2
口口口口 |----|
②①③④ |----|
口口口口 |①-②-|
口口口口 |③-④-|
3
口⑤口口 |①-②-|
口口口口 |--③-|
④①②④ |--④-|
口③③口 |--⑤-|
4
口口①口 |①---|
口②③口 |②-③-|
④⑤口④ |--④-|
口口口口 |--⑤-|
5
口③④口 |①-②-|
口口口口 |----|
口口口口 |----|
口②①口 |③-④-|
6
口口口口 |----|
②①③④ |----|
口口口口 |①-②-|
口口口口 |③-④-|
7
口⑤口口 |①-②-|
口口口口 |--③-|
④①②④ |--④-|
口③③口 |--⑤-|
8
口口①口 |①---|
口②③口 |②-③-|
口④⑤口 |----④-|
口口口口 |--⑤---|
9
口③④口 |①---|
②口口② |--②-|
口口口① |----|
口口口口 |③-④-|
10
口口口口 |----|
②①③④ |----|
口口口口 |①-②-|
口口口口 |③-④-|
11
口⑤口口 |①-②-|
口口口口 |--③-|
④①②④ |--④-|
口③③口 |--⑤-|
12
口口①口 |①---|
口②③口 |②-③-|
④⑤口④ |--④-|
口口口口 |--⑤-|
13
口③④口 |①-②-|
口口口口 |----|
口口口口 |----|
口②①口 |③-④-|
14
口口口口 |----|
②①③④ |----|
口口口口 |①-②-|
口口口口 |③-④-|
15
口⑤口口 |①-②-|
口口口口 |--③-|
④①②④ |--④-|
口③③口 |--⑤-|
16
口口①口 |①---|
⑤②③口 |②-③-|
④口口④ |--④-|
口口口口 |--⑤-|
17
②口口② |①---|
口③④① |--②-|
口口口口 |----|
口口口口 |③-④-|
18
口口①③ |----|
口口口口 |----|
口口②④ |①-②-|
口口口口 |③-④-|
19
口口口口 |①---|
口③②口 |②-③-|
口口口口 |----|
口口①① |----|
20
①口⑤⑤ |--①-|
②口口口 |②-③-|
③口口口 |--④-|
④④口口 |--⑤-|
21
口③口口 |----|
口口口口 |--①-|
口口①① |----|
口口②口 |②-③-|
22
口口口口 |----|
口口口口 |----|
口口口口 |----|
口口口口 |----|
23
口口口④ |----|
口口②口 |----|
口口口③ |①-②-|
口口①口 |③-④-|
24
口②口口 |--①-|
口③口② |--②-|
③①口口 |--③-|
口口口① |----|
25
口口②口 |①---|
口口口口 |--②-|
口口口口 |----|
口口①口 |----|
26
①口口口 |----|
②③口口 |----|
口④口口 |①-②-|
口口口口 |③-④-|
27
口口口③ |①---|
口口口口 |②-③-|
口口口② |----|
口①口口 |----|
28
①②⑤口 |--①-|
②③口口 |②-③-|
口口口口 |--④-|
口口④口 |--⑤-|
29
口口口④ |----|
口口口口 |--①-|
口①②口 |②---|
口口口③ |③-④-|
30
口口口口 |----|
口口口口 |----|
口口口口 |----|
口口口口 |----|
31
①②③④ |----|
口口口口 |----|
口口口口 |①-②-|
口口口口 |③-④-|
32
口口口口 |--①-|
②口口口 |--②-|
口口口③ |--③-|
①口口口 |----|
33
口②③口 |①---|
口①①口 |②-③-|
口④⑤口 |----|
口口口口 |④-⑤-|
34
口口口口 |----|
①口口② |①-②-|
口口口口 |----|
口口口口 |----|
35
口①②③ |----|
口①②③ |----|
口口口口 |①---②-|
口口口口 |--③---|
36
口⑥口口 |①-②-|
⑤口口⑤ |③-④-|
④口②口 |--⑤-|
口③口① |--⑥-|
37
④④①口 |①---|
口②③口 |②-③-|
口口口口 |----|
口口口口 |--④-|
38
口口口口 |----|
口③口口 |①---|
②口口口 |②---|
口①口口 |③---|
39
口②①口 |①---|
②口③口 |----|
口③口④ |②---③-|
口口④口 |--④---|
40
口口口② |①---|
口③口口 |②---|
口口④口 |③-④-|
⑤口口① |--⑤-|
41
①口口口 |----|
口口口口 |--①-|
口口口口 |----|
口口口口 |----|
42
口口⑥⑦ |①-②-|
口④⑤⑧ |③-④-|
②③口口 |⑤-⑥-|
①口口口 |⑦-⑧-|
43
口①口口 |----|
①口②口 |----|
口②口③ |①---②-|
口口③口 |--③---|
44
④口口口 |①-②-|
⑤③口⑤ |③-④-|
口⑥②口 |--⑤-|
口口口① |--⑥-|
45
口②③口 |①---|
口口口口 |②-③-|
口口口口 |----|
①④⑤① |④-⑤-|
46
口口口④ |----|
②③口口 |--①-|
口①①口 |--②-|
口口口口 |③-④-|
47
口口①口 |①-②-|
⑥口③② |③---|
口⑤口口 |④---⑤-|
④口口口 |--⑥---|
48
口①口⑤ |①---|
口③④口 |②---|
口口口⑤ |③-④-|
口②②口 |--⑤-|
49
①口口口 |----|
口口口口 |--①-|
①口口口 |----|
口口口口 |----|
50
口⑤口口 |①-②-|
①⑤②② |③---|
口口④口 |④---|
③③口④ |⑤---|
51
口口口① |①---|
口口②③ |②-③-|
口口口① |--④-|
④⑤口口 |--⑤-|
52
①口口⑤ |--①-|
口②④口 |②-③-|
口③口口 |④-⑤-|
口口口⑥ |--⑥-|
53
⑥⑦⑤④ |①---|
口⑥④口 |②-③-|
②③口① |④-⑤-|
口②①口 |⑥-⑦-|
54
口口口口 |----|
口①①口 |----|
口口口口 |----|
口口口口 |--①-|
55
口①①② |①-②-|
口口口③ |③-④-|
口口⑤④ |⑤-⑥-|
口⑧⑦⑥ |⑦-⑧-|
56
⑤⑥⑦口 |①-②-|
④⑧口口 |③-④-|
③②口口 |⑤-⑥-|
①口口口 |⑦-⑧-|
57
⑦口⑥⑤ |--①-|
口⑦⑤口 |②-③-|
③④②① |④-⑤-|
口③①口 |⑥-⑦-|
58
⑤①口口 |①-②-|
⑥口口口 |③-④-|
口④③口 |----|
②口口② |⑤-⑥-|
59
口⑧⑦⑥ |①-②-|
口①④⑤ |③-④-|
口口③② |⑤-⑥-|
口口②口 |⑦-⑧-|
60
③口口口 |--①-|
②④口口 |--②-|
⑤①口口 |③-④-|
口⑥口口 |⑤-⑥-|
61
⑤④口⑦ |--①-|
④口③口 |②-③-|
口③②① |④-⑤-|
口口①⑥ |⑥-⑦-|
62
⑦口①口 |--①-|
口⑥口② |②-③-|
⑤口③口 |④-⑤-|
口④口口 |⑥-⑦-|
63
口④口口 |①-②-|
③口口⑦ |③-④-|
口②⑥⑤ |--⑤-|
①口⑤口 |⑥-⑦-|
64
口②①口 |①---|
口口③口 |②-③-|
口口口口
口口口口

口口⑥口
口口口口
口④口口 |④-⑤-|
⑤口口口 |--⑥-|
65
⑦⑥口口 |①-②-|
⑥①⑧口 |③-④-|
②⑧⑤④ |⑤-⑥-|
口③④口 |⑦-⑧-|
66
口口④③ |①-②-|
⑥⑤⑦⑧ |③-④-|
口口口口 |⑤-⑥-|
②口口① |⑦-⑧-|
67
口⑤口口 |①-②-|
口口口口 |--③-|
④①②④ |--④-|
口③③口 |--⑤-|
68
口口①口 |①---|
口②③口 |②-③-|
④⑤口④ |--④-|
口口口口 |--⑤-|
69
口③④口 |①-②-|
口口口口 |----|
口口口口 |----|
口②①口 |③-④-|
70
口口口口 |----|
②①③④ |----|
口口口口 |①-②-|
口口口口 |③-④-|
71
口⑤口口 |①-②-|
口口口口 |--③-|
④①②④ |--④-|
口③③口 |--⑤-|
72
口口①口 |①---|
口②③口 |②-③-|
口④⑤口 |----④-|
口口口口 |--⑤---|
73
口③④口 |①---|
②口口② |--②-|
口口口① |----|
口口口口 |③-④-|
74
口口口口 |----|
②①③④ |----|
口口口口 |①-②-|
口口口口 |③-④-|
75
口⑤口口 |①-②-|
口口口口 |--③-|
④①②④ |--④-|
口③③口 |--⑤-|
76
口口①口 |①---|
口②③口 |②-③-|
④⑤口④ |--④-|
口口口口 |--⑤-|
77
口③④口 |①-②-|
口口口口 |----|
口口口口 |----|
口②①口 |③-④-|
78
口口口口 |----|
②①③④ |----|
口口口口 |①-②-|
口口口口 |③-④-|
79
口⑤口口 |①-②-|
口口口口 |--③-|
④①②④ |--④-|
口③③口 |--⑤-|
80
口口①口 |①---|
⑤②③口 |②-③-|
④口口④ |--④-|
口口口口 |--⑤-|
81
②口口② |①---|
口③口① |--②-|
口口③口 |----|
口口口口 |--③-|


不确定度: 0

最終更新:2012年11月08日 18:24