Baby Sweet Berry Love
小倉 唯

BASIC

Level: 3
BPM: 170
Notes: 181

1
口口口口 |----|
口口口口 |----|
口口口口 |----|
口口口口 |----|
2
口口口口 |①---|
口①②口 |----|
③口口口 |②---|
口口口口 |--③-|
3
口口口口 |--①-|
口口口口 |--②-|
口①②口 |----|
口口口口 |----|
4
口口口口 |①---|
口②①口 |----|
口口口口 |②---|
口口口口 |----|
5
口口口口 |①---|
口口口口 |----|
口口①口 |----|
口口口口 |----|
6
口口口口 |①---|
口口口口 |----|
口口口口 |②---|
口①②口 |----|
7
口口口口 |①---|
口口口口 |----|
口①②口 |②---|
口口口口 |----|
8
口口口口 |①---|
口①②口 |----|
口口口口 |②---|
口口口口 |----|
9
口①①口 |①---|
口口口口 |----|
口口口口 |----|
口口口口 |----|
10
口口口口 |①---|
口口③③ |②---|
口②口口 |③---|
口①口口 |----|
11
口口口口 |①---|
③③口口 |②---|
口口②口 |③---|
口口①口 |----|
12
口口口口 |①---|
④④②② |②---|
口①③口 |③---|
口口口口 |④---|
13
④口口④ |①---|
口③口口 |②---|
口①②口 |③---|
口口口口 |④---|
14
口①①口 |①---|
口口口口 |----|
口口口口 |----|
口口口口 |----|
15
口口口口 |①---|
口①①口 |----|
口口口口 |----|
口口口口 |----|
16
口口口口 |①---|
口口口口 |----|
口①②口 |②---|
口口口口 |----|
17
口口口口 |①---|
口口口口 |----|
口口口口 |----|
口①①口 |----|
18
口口口口 |①---|
口①口口 |----|
口口口口 |----|
口口口口 |----|
19
口口口口 |①---|
口口口① |----|
口口口口 |----|
口口口口 |----|
20
口口口口 |①---|
口口口口 |----|
口口口① |----|
口口口口 |----|
21
口口口口 |①---|
口口口口 |----|
口①口口 |----|
口口口口 |----|
22
口口口口 |①---|
口口口口 |----|
口口口口 |②---|
①②口口 |----|
23
口口口口 |①---|
口口口口 |----|
口口②① |②---|
口口口口 |----|
24
口口口口 |①---|
①②③④ |②---|
口口口口 |③---|
口口口口 |④---|
25
口①①口 |①---|
口口口口 |----|
口口口口 |----|
口口口口 |----|
26
口口口口 |①---|
①②口③ |②---|
口口口④ |③---|
口口口口 |④---|
27
口口口口 |①---|
口口口口 |----|
口②②口 |②---|
口①①口 |----|
28
口口口口 |①---|
③口②① |②---|
④口口口 |③---|
口口口口 |④---|
29
口口口口 |①---|
口口口口 |----|
口②②口 |②---|
口①①口 |----|
30
口口口口 |①---|
①②③口 |②---|
口口口口 |③---|
口口口口 |----|
31
口③②① |①---|
口口口口 |②---|
口口口口 |③---|
口口口口 |----|
32
口口口口 |①---|
口③①口 |②---|
口④②口 |③---|
口口口口 |④---|
33
口口口口 |①---|
①口口① |----|
口口口口 |----|
口口口口 |----|
34
口口口口 |①---|
①②口口 |--②-|
口口③口 |----|
口口口口 |③---|
35
口口口口 |--①-|
口口口口 |----|
口口②口 |②---|
口①口口 |----|
36
口口口口 |①---|
口口②① |--②-|
口③口口 |----|
口口口口 |③---|
37
口口口口 |--①-|
口口口口 |----|
口②口口 |②---|
口口①口 |----|
38
口口口口 |①---|
④③②① |②---|
口口口口 |③---|
口口口口 |④---|
39
口口口口 |①---|
口口口口 |②---|
①②③④ |③---|
口口口口 |④---|
40
口口口口 |①---|
口①①口 |----|
口口口口 |----|
口口口口 |----|
41
口口口口 |①---|
口④③② |②---|
口①①口 |③---|
口口口口 |④---|
42
口口口口 |①---|
①口口口 |----|
口②②口 |②---|
口③③口 |--③-|
43
口口口口 |----|
口口口口 |----|
口口口口 |----|
口口口口 |----|
44
口口口口 |①---|
④①②口 |②---|
口③口口 |③---|
口口口口 |--④-|
45
口口口口 |--①-|
口①②口 |--②-|
口口口口 |----|
口口口口 |----|
46
口口口口 |①---|
口口④② |②---|
口口③① |③---|
口口口口 |④---|
47
口口口口 |①---|
口口口口 |----|
①①口口 |----|
口口口口 |----|
48
口口④口 |①---|
口口③口 |②---|
口口②口 |③---|
口口①口 |④---|
49
口①口口 |①---|
口②口口 |②---|
口③③口 |③---|
口口口口 |----|
50
口口口口 |①---|
①②③④ |②---|
口口口口 |③---|
口口口口 |④---|
51
口①①口 |①---|
口口口口 |----|
口口口口 |----|
口口口口 |----|
52
口口口口 |①---|
口②①④ |②---|
口口③口 |③---|
口口口口 |--④-|
53
口口口口 |--①-|
口②①口 |--②-|
口口口口 |----|
口口口口 |----|
54
口口口口 |①---|
②④口口 |②---|
①③口口 |③---|
口口口口 |④---|
55
口口口口 |①---|
口口口口 |----|
口口①① |----|
口口口口 |----|
56
口口口口 |①---|
①②口口 |②---|
口口③④ |③---|
口口口口 |④---|
57
口口口口 |①---|
口口②① |②---|
口③③口 |③---|
口口口口 |----|
58
口口口口 |①---|
④③②① |②---|
口口口口 |③---|
口口口口 |④---|
59
口口口口 |①---|
口口口口 |----|
口①①口 |----|
口口口口 |----|
60
口口口口 |①---|
口①②口 |----|
③口口口 |②---|
口口口口 |--③-|
61
口口口口 |--①-|
口口口口 |--②-|
口①②口 |----|
口口口口 |----|
62
口口口口 |①---|
口口口口 |②---|
口③④口 |③---|
口①②口 |④---|
63
④③口④ |①---|
口①②口 |②---|
口口口口 |③---|
口口口口 |④---|

不確定度: 0

最終更新:2014年08月01日 22:32