Baby Sweet Berry Love
小倉 唯

ADVANCED

Level: 6
BPM: 170
Notes: 339

1
口口口口 |----|
口口口口 |----|
口①②③ |--①-|
口口口口 |②-③-|
2
①③口口 |①---|
②④口口 |②---|
口口口⑤ |③---|
口口口口 |④-⑤-|
3
口口口② |--①-|
口口口① |--②-|
口口口口 |----|
口口口口 |----|
4
口③口口 |①---|
口②口口 |②---|
口①④口 |③---|
口⑤口口 |④-⑤-|
5
口口口口 |----|
口口口口 |----|
③②①口 |--①-|
口口口口 |②-③-|
6
③③①① |①---|
④④②② |②---|
口口⑤口 |③---|
口口口口 |④-⑤-|
7
口③口口 |--①-|
口口②口 |②-③-|
口①口口 |----|
口④口口 |--④-|
8
口口⑤⑦ |①-②-|
口⑥⑤口 |③-④-|
②④③① |⑤---|
口口口口 |⑥-⑦-|
9
口口口口 |----|
口口口口 |----|
口口口口 |----|
口口口口 |----|
10
口口⑥⑥ |①-②-|
③①口口 |③-④-|
④②口口 |⑤--⑥|
口口⑤⑤ |----|
11
⑥⑥口口 |①-②-|
口口①③ |③-④-|
口口②④ |⑤--⑥|
⑤⑤口口 |----|
12
⑥⑥③③ |①-②-|
口④①口 |③---|
口⑤②口 |④-⑤-|
口口口口 |⑥---|
13
口口口⑤ |①-②-|
口口口⑤ |③-④-|
⑥④③口 |⑤--⑥|
⑥②①口 |----|
14
口口⑥口 |①-②-|
①②③口 |③-④-|
口⑤口④ |--⑤-|
口口口口 |⑥---|
15
口⑤⑤口 |①-②-|
④口口口 |③-④-|
口口口口 |----|
口③②① |--⑤-|
16
口口口口 |--①-|
⑥④②口 |②-③-|
⑤③①口 |④-⑤-|
口口口口 |⑥---|
17
口口口口 |①---|
口口口口 |----|
口口口口 |----|
口①①口 |----|
18
口口口口 |①---|
口口②① |②---|
③④口口 |③---|
口口口口 |④---|
19
口口①口 |①---|
口②口口 |--②-|
口口③口 |③---|
口口口口 |----|
20
口口口口 |①---|
①②口口 |②---|
口口④③ |③---|
口口口口 |④---|
21
口①口口 |①---|
口口②口 |--②-|
口③口口 |③---|
口口口口 |----|
22
口②②口 |①---|
口口口口 |--②-|
①口口① |----|
口口口口 |----|
23
口口口口 |①---|
②口口② |--②-|
口口口口 |----|
口①①口 |----|
24
口②①口 |①---|
口①②口 |②---|
口④③口 |③---|
口③④口 |④---|
25
①口口① |①---|
口口口口 |----|
口口口口 |----|
口口口口 |----|
26
口口口口 |①---|
①②口口 |②---|
口⑥⑤口 |③-④-|
口④③口 |⑤-⑥-|
27
口口①① |①---|
口②口口 |--②-|
口口③口 |③---|
口口口口 |----|
28
口口口口 |①---|
口口②① |②---|
口⑤⑥口 |③-④-|
口③④口 |⑤-⑥-|
29
①①口口 |①---|
口口②口 |--②-|
口③口口 |③---|
口口口口 |----|
30
口口口口 |①-②-|
②口口① |③-④-|
口口口③ |----|
口④口口 |----|
31
口口口口 |①-②-|
①口口② |③-④-|
③口口口 |----|
口口④口 |----|
32
口③③口 |①---|
口②②口 |②---|
④①①④ |③---|
口口口口 |④---|
33
①口口① |①---|
口口口口 |----|
口口口口 |----|
口口口口 |----|
34
口①①口 |①---|
口②②口 |--②-|
口口口口 |----|
③口口③ |③---|
35
口口口口 |--①-|
口⑤口口 |②-③-|
①③④② |④-⑤-|
口口口口 |----|
36
①口口① |①---|
②口口② |--②-|
口口口口 |----|
口③③口 |③---|
37
口口口口 |--①-|
口口⑤口 |②-③-|
②④③① |④-⑤-|
口口口口 |----|
38
口⑤⑥口 |①-②-|
①②口口 |③-④-|
口口③④ |--⑤-|
口口口口 |⑥---|
39
口⑥⑤口 |①-②-|
口口②① |③-④-|
④③口口 |--⑤-|
口口口口 |⑥---|
40
①口口① |①---|
口口口口 |----|
口口口口 |----|
口口口口 |----|
41
③口口口 |----|
口口口③ |①---|
①口口② |②---|
②口口① |③---|
42
口②②① |①---|
①口口口 |----|
口口口口 |②---|
③口口③ |--③-|
43
口口口口 |----|
口口口口 |----|
口①②③ |--①-|
口口口口 |②-③-|
44
①①③③ |①---|
②②④④ |②---|
口⑤⑤口 |③---|
口口口口 |④-⑤-|
45
②口口② |--①-|
③口口口 |--②-|
口口口口 |----|
口①①口 |--③-|
46
口口口口 |①-②-|
口口口① |③-④-|
④②③⑤ |⑤---|
口⑥⑦口 |⑥-⑦-|
47
口口口口 |----|
口口口口 |----|
③②①口 |--①-|
口口口口 |②-③-|
48
③③①① |①---|
④④②② |②---|
口口⑤口 |③---|
口口口口 |④-⑤-|
49
口③口口 |--①-|
口口②口 |②-③-|
口①口口 |----|
口④口口 |--④-|
50
口口⑤⑦ |①-②-|
口⑥⑤口 |③-④-|
②④③① |⑤---|
口口口口 |⑥-⑦-|
51
口口口口 |----|
口口口口 |----|
口①②③ |--①-|
口口口口 |②-③-|
52
①①③③ |①---|
④②④② |②---|
口⑤⑤口 |③---|
口口口口 |④-⑤-|
53
②口口② |--①-|
口口口③ |--②-|
口口口口 |----|
口①①口 |--③-|
54
口口口口 |①-②-|
①口口口 |③-④-|
⑤③②④ |⑤---|
口⑦⑥口 |⑥-⑦-|
55
口口口口 |----|
口口口口 |----|
③②①口 |--①-|
口口口口 |②-③-|
56
③③①① |①---|
②④②④ |②---|
口⑤⑤口 |③---|
口口口口 |④-⑤-|
57
口口口① |--①-|
②口口口 |②-③-|
口口口③ |----|
口④口口 |--④-|
58
口④③口 |①-②-|
口②⑤口 |③-④-|
口口①口 |⑤---|
口⑥⑦口 |⑥-⑦-|
59
口口口口 |----|
口口口口 |----|
口①②③ |--①-|
口口口口 |②-③-|
60
①①③③ |①---|
②②④④ |②---|
口⑤⑤口 |③---|
口口口口 |④-⑤-|
61
②口口② |--①-|
口口口口 |--②-|
③口口口 |----|
口①①口 |--③-|
62
口⑥⑥口 |①-②-|
④口口⑤ |③-④-|
口②③① |⑤---|
口⑦⑦口 |⑥-⑦-|
63
口⑤口口 |①---|
口口④口 |②---|
③②①口 |③-④-|
口口口口 |⑤---|

不確定度: 0

最終更新:2014年08月01日 22:31