Arousing
DJ TOTTO feat.吉河順央

BASIC

Level: 3
BPM: 179
Notes: 230

1
口口口口 |----|
口口口口 |----|
口口口口 |----|
口口口口 |----|
2
口口口口 |----|
口口口口 |----|
口口①口 |①---|
口口口口 |----|
3
口口②口 |①---|
口口①口 |----|
口口口口 |②---|
口口口口 |----|
4
口口口口 |①---|
口①①口 |----|
口口口口 |----|
口口口口 |----|
5
口口口口 |----|
口口口口 |----|
口口口口 |----|
口口口口 |----|
6
口口口口 |①---|
口口口口 |----|
口①①口 |----|
口口口口 |----|
7
口口口口 |----|
口口口口 |----|
口口口口 |----|
口口口口 |----|
8
口口口口 |①---|
口口口口 |----|
口②口口 |②---|
口①①口 |----|
9
口②口口 |①---|
口①口口 |----|
口口口口 |②---|
口口口口 |----|
10
口口口口 |①---|
口①①口 |----|
口口口口 |----|
口口口口 |----|
11
口③③口 |①---|
口口②口 |----|
口①①口 |②---|
口口口口 |③---|
12
口口口① |①---|
口口口② |②---|
口口口③ |③---|
口口口④ |④---|
13
口口口口 |①---|
口①口口 |②---|
口口②口 |----|
口口口口 |----|
14
口口口口 |①---|
口口口口 |----|
口口口口 |----|
口①①口 |----|
15
口口口口 |①---|
口口口口 |----|
②口口② |②---|
①口口① |----|
16
①口口口 |①---|
②口口口 |②---|
③口口口 |③---|
④口口口 |④---|
17
口口口口 |①---|
口口①口 |②---|
口②口口 |----|
口口口口 |----|
18
口口口口 |①---|
口口口口 |----|
口口口口 |----|
口①①口 |----|
19
口口口口 |①---|
口口口口 |----|
②口口② |②---|
①口口① |----|
20
口口口口 |①---|
口①①口 |----|
口口口口 |----|
口口口口 |----|
21
口口③口 |①---|
口口②口 |②---|
口口①口 |③---|
口口口口 |----|
22
口③口口 |①---|
口②口口 |②---|
口①口口 |③---|
口口口口 |----|
23
口口③口 |①---|
口口②口 |②---|
口口①口 |③---|
口口口口 |----|
24
口③口口 |①---|
口②口口 |②---|
口①口口 |③---|
口口口口 |----|
25
口口口口 |①---|
口口口口 |----|
口①①口 |----|
口口口口 |----|
26
口④口口 |①---|
口口③口 |②---|
口②口口 |③---|
口口①口 |④---|
27
口口①口 |①---|
口②口口 |②---|
口口③口 |③---|
口④口口 |④---|
28
口口口口 |①---|
口②②口 |----|
口口口口 |②---|
口口①口 |----|
29
口口口口 |①---|
口口口口 |②---|
口①②③ |③---|
口口口口 |----|
30
口口口口 |①---|
③②①口 |②---|
口口口口 |③---|
口口口口 |----|
31
口口口口 |①---|
口口口口 |②---|
口①②③ |③---|
口口口口 |----|
32
口口口口 |①---|
③②①口 |②---|
口口口口 |③---|
口口口口 |----|
33
口口口口 |①---|
口口口口 |----|
口①①口 |----|
口口口口 |----|
34
口④口口 |①---|
口口③口 |②---|
口②口口 |③---|
口口①口 |④---|
35
口口①口 |①---|
口②口口 |②---|
口口③口 |③---|
口④口口 |④---|
36
口口口口 |①---|
口②②口 |----|
口口口口 |②---|
口口①口 |----|
37
口口口口 |①---|
口口口口 |----|
口①①口 |----|
口口口口 |----|
38
口口口口 |----|
口口口口 |----|
口口口口 |----|
口口口口 |----|
39
口口口口 |①---|
口①①口 |----|
口口口口 |----|
口口口口 |----|
40
口口口口 |----|
口口口口 |----|
口口口口 |----|
口口口口 |----|
41
口口口口 |①---|
口口口口 |----|
①口口① |----|
口口口口 |----|
42
口口口口 |----|
口口口口 |----|
口口口口 |----|
口口口口 |----|
43
口口口口 |①---|
①口口① |----|
口口口口 |----|
口口口口 |----|
44
口口口口 |----|
口口口口 |----|
口口口口 |----|
口口口口 |----|
45
口口口口 |①---|
口口口口 |----|
口口②① |②---|
口口口口 |----|
46
口口口口 |①---|
口口口口 |----|
②①口口 |②---|
口口口口 |----|
47
口口口口 |①---|
口口②① |----|
口口口口 |②---|
口口口口 |----|
48
口口口口 |①---|
②①口口 |----|
口口口口 |②---|
口口口口 |----|
49
口①①口 |①---|
口口口口 |----|
口口口口 |----|
口口口口 |----|
50
口口口口 |①---|
口①①口 |----|
口口口口 |----|
口口口口 |----|
51
口口③口 |①---|
口口②口 |②---|
口口①口 |③---|
口口口口 |----|
52
口③口口 |①---|
口②口口 |②---|
口①口口 |③---|
口口口口 |----|
53
①口口① |①---|
②口口② |②---|
③口口③ |③---|
④口口④ |④---|
54
口④④口 |①---|
口③③口 |②---|
口②②口 |③---|
口①①口 |④---|
55
口口口口 |----|
口口口口 |----|
口口口口 |----|
口口口口 |----|
56
口口③口 |①---|
口口②口 |②---|
口口①口 |③---|
口口口口 |----|
57
口③口口 |①---|
口②口口 |②---|
口①口口 |③---|
口口口口 |----|
58
口口③口 |①---|
口口②口 |②---|
口口①口 |③---|
口口口口 |----|
59
口口口口 |①---|
①口口② |----|
口口口口 |②---|
口口口口 |----|
60
口口口口 |①---|
口口②口 |②---|
口①口口 |----|
口口口口 |----|
61
口口口口 |①---|
口①②口 |----|
口口口口 |②---|
口口口口 |----|
62
口口口口 |①---|
口口口口 |----|
口①②口 |②---|
口口口口 |----|
63
口口口口 |----|
口口口口 |----|
口口口口 |----|
口口口口 |----|
64
口口口③ |①---|
口口口② |②---|
口口口① |③---|
口口口口 |----|
65
③口口口 |①---|
②口口口 |②---|
①口口口 |③---|
口口口口 |----|
66
口口③口 |①---|
口口②口 |②---|
口口①口 |③---|
口口口口 |----|
67
口③口口 |①---|
口②口口 |②---|
口①口口 |③---|
口口口口 |----|
68
口口口口 |①---|
口口②口 |②---|
口①口口 |----|
口口口口 |----|
69
口口口口 |①---|
口①②口 |----|
口口口口 |②---|
口口口口 |----|
70
口口口口 |①---|
②②④④ |②---|
口①③口 |③---|
口口口口 |④---|
71
③①②③ |①---|
口口口口 |②---|
口口口口 |③---|
口口口口 |----|
72
口口口口 |①---|
口②②口 |----|
口①①口 |②---|
口口口口 |----|
73
口口口口 |①---|
②口口② |----|
①口口① |②---|
口口口口 |----|
74
口口口口 |①---|
口口口口 |----|
口①①口 |----|
口口口口 |----|
75
口口口口 |----|
口口口口 |----|
口①①口 |①---|
口口口口 |----|
76
口口口① |①---|
口口口② |②---|
口口口③ |③---|
口口口④ |④---|
77
口口口口 |①---|
口①口口 |②---|
口口②口 |----|
口口口口 |----|
78
口口口口 |①---|
口口口口 |----|
口口口口 |----|
口①①口 |----|
79
口口口口 |①---|
口口口口 |----|
口口口口 |----|
①口口① |----|
80
①口口口 |①---|
②口口口 |②---|
③口口口 |③---|
④口口口 |④---|
81
口口口口 |①---|
口口①口 |②---|
口②口口 |----|
口口口口 |----|
82
口口口口 |①---|
口口口口 |----|
口口口口 |----|
口①①口 |----|
83
口口口口 |①---|
口口口口 |----|
②口口② |②---|
①口口① |----|
84
口口口口 |①---|
口口口口 |--②-|
②③③② |----|
口①①口 |③---|
85
口②②口 |--①-|
①③③① |----|
口口口口 |②---|
口口口口 |③---|
86
口口口口 |①---|
②口口② |--②-|
口①①口 |----|
口口口口 |----|

不確定度: 0

最終更新:2014年08月01日 22:30