Arousing
DJ TOTTO feat.吉河順央

ADVANCED

Level: 7
BPM: 179
Notes: 509

1
口口口口 |----|
口口口口 |----|
口口口口 |----|
口口口口 |----|
2
口口口口 |----|
口口口口 |----|
口①①口 |①---|
口口口口 |----|
3
口②②口 |①---|
口①①口 |----|
口口口口 |②---|
口口口口 |----|
4
⑦口口口 |①-②-|
口②①口 |③-④-|
⑥④③口 |⑤---|
口口⑤口 |⑥-⑦-|
5
口口口口 |--①-|
口口口① |--②-|
口②口口 |③---|
口口③口 |----|
6
口口口⑦ |①-②-|
口②①口 |③-④-|
口④③⑥ |⑤---|
口口⑤口 |⑥-⑦-|
7
口①口口 |--①-|
口口②口 |--②-|
口③口口 |--③-|
口口④口 |--④-|
8
口口口口 |①---|
口①口口 |----|
②口口② |②---|
口口口口 |----|
9
②③③② |①---|
①口口① |--②-|
口口口口 |----|
口口口口 |③---|
10
口口口口 |①---|
口口口口 |----|
口口口口 |----|
口①①口 |----|
11
口③③口 |①---|
口口口口 |----|
②①①② |②---|
口口口口 |③---|
12
口口口口 |①-②-|
口②①口 |③-④-|
口口③⑤ |----|
口④口口 |--⑤-|
13
口③③① |①---|
②口口口 |②---|
口口口口 |③---|
口口口口 |----|
14
口口口口 |①-②-|
⑤②①⑤ |③-④-|
口口③口 |----|
口④口口 |--⑤-|
15
⑥⑥⑤⑤ |--①-|
口②①口 |②-③-|
口④③口 |④-⑤-|
口口口口 |--⑥-|
16
口口口口 |①-②-|
口②①口 |③-④-|
口口③⑤ |----|
口④口口 |--⑤-|
17
口③③① |①---|
②口口口 |②---|
④口口④ |③---|
口口口口 |④---|
18
口口口口 |①-②-|
⑤②①⑤ |③-④-|
口口③口 |----|
口④口口 |--⑤-|
19
⑥⑥口口 |--①-|
口②①口 |②-③-|
口④③口 |④-⑤-|
口口⑤口 |⑥---|
20
口口口口 |①---|
①口口① |----|
口口口口 |----|
口口口口 |----|
21
口口口口 |--①-|
口口口口 |②-③-|
口⑥⑤口 |④---|
④②①③ |⑤-⑥-|
22
口口口口 |①-②-|
②口口③ |--③-|
口口口① |--④-|
口④④口 |----|
23
口口①口 |①---|
口③口② |②-③-|
口口④口 |④---|
口⑥口⑤ |⑤-⑥-|
24
口④④口 |①-②-|
⑤口③⑤ |--③-|
口②口口 |--④-|
口口①口 |--⑤-|
25
口①②口 |----|
口口口口 |----|
口口口口 |----|
口口口口 |①-②-|
26
①口口⑧ |①-②-|
③口②口 |③-④-|
⑤口④口 |⑤-⑥-|
⑦口⑥口 |⑦-⑧-|
27
⑦口口口 |--①-|
口①口② |②-③-|
口③口④ |④-⑤-|
口⑤口⑥ |⑥-⑦-|
28
口口口口 |--①-|
口口①口 |②---|
口②口口 |③---|
口③③口 |----|
29
口口口口 |--①-|
②③③① |②---|
②口④① |③---|
口⑤口口 |④-⑤-|
30
口③③口 |①-②-|
口④④口 |--③-|
口②口口 |--④-|
口口①口 |----|
31
①口口① |①---|
③口口② |②-③-|
口⑥⑤④ |④---|
口口口口 |⑤-⑥-|
32
口口口口 |①-②-|
口②①口 |--③-|
④口口③ |--④-|
口口口⑤ |--⑤-|
33
口②①口 |----|
口口口口 |----|
口口口口 |----|
口口口口 |①-②-|
34
⑧口口① |①-②-|
口②口③ |③-④-|
口④口⑤ |⑤-⑥-|
口⑥口⑦ |⑦-⑧-|
35
口口口⑥ |--①-|
②口①口 |②---|
③口口口 |③-④-|
⑤口④口 |⑤-⑥-|
36
口口口口 |--①-|
口①口口 |②---|
口口②口 |③---|
口③③口 |----|
37
⑤口口④ |①---|
⑥①①③ |②-③-|
口口口② |④---|
口口口口 |⑤-⑥-|
38
口③口口 |--①-|
口④②口 |--②-|
口①①口 |③---|
口口口口 |--④-|
39
②口①③ |①---|
④口口⑤ |②---|
⑥口口口 |③-④-|
口口口口 |⑤-⑥-|
40
口口口口 |--①-|
口口口口 |--②-|
口②①口 |③---|
口口③口 |----|
41
⑤口口④ |①---|
⑥①①③ |②-③-|
口口口② |④---|
口口口口 |⑤-⑥-|
42
④③口口 |--①-|
口口②口 |--②-|
口①①口 |③---|
口口口口 |--④-|
43
口口⑥① |①---|
口③②口 |②---|
口⑤④口 |③-④-|
口口口口 |⑤-⑥-|
44
口口口口 |--①-|
①口口② |--②-|
口口口口 |③---|
口③口口 |----|
45
⑤⑥口② |①---|
口④③口 |②-③-|
口①①口 |④---|
口口口口 |⑤-⑥-|
46
口口口口 |--①-|
口口②口 |--②-|
④①①口 |③---|
口③口口 |--④-|
47
②⑥③① |①---|
口⑤④口 |②---|
口口口口 |③-④-|
口口口口 |⑤-⑥-|
48
口口口口 |--①-|
口④口口 |--②-|
口②②口 |--③-|
③①①③ |--④-|
49
口口①① |①---|
②③口口 |----|
口口口口 |----|
口口口口 |②-③-|
50
口口①① |①---|
口口②② |--②-|
口口口口 |----|
口口③③ |③---|
51
口口④④ |--①-|
⑤⑥口口 |②-③-|
③口②① |④---|
口口口口 |⑤-⑥-|
52
②②口口 |①-②-|
口口口① |--③-|
口③③口 |--④-|
④口口④ |----|
53
④④①① |①---|
⑤口口口 |②-③-|
口②③口 |④---|
口口口⑥ |⑤-⑥-|
54
③③口② |①-②-|
口④④② |--③-|
④口口④ |--④-|
①口口口 |----|
55
口口口③ |----|
口口口② |----|
口口口① |--①-|
口口口口 |②-③-|
56
⑤①口⑦ |①-②-|
⑤口②⑦ |③-④-|
口③口口 |⑤---|
⑥口④口 |⑥-⑦-|
57
②①①口 |--①-|
口口口口 |--②-|
口口③③ |③---|
④口口口 |--④-|
58
⑦④口⑤ |①-②-|
⑦口③⑤ |③-④-|
口②口口 |⑤---|
口口①⑥ |⑥-⑦-|
59
口口③② |--①-|
口①①口 |--②-|
②③口口 |--③-|
口④④口 |--④-|
60
①口口① |----|
口①①口 |①---|
口②③④ |--②-|
口口口口 |③-④-|
61
口口②② |①---|
①口口口 |②---|
①口口口
口口口口

③③口口
⑤口口④
⑤口口④ |③--④|
口口口口 |--⑤-|
62
口②②口 |①---|
口口口口 |--②-|
口口口口 |③---|
③①①③ |----|
63
口②①③ |----|
口口口口 |----|
口口口口 |--①-|
口口口口 |②-③-|
64
⑦⑦口口 |①-②-|
⑤口口④ |③-④-|
⑤③口② |⑤---|
口①口⑥ |⑥-⑦-|
65
口口①① |--①-|
②口④② |--②-|
口口口口 |③---|
口③③口 |--④-|
66
口⑦⑦口 |①-②-|
口口口口 |③-④-|
①②④③ |⑤---|
⑥⑤⑤⑥ |⑥-⑦-|
67
口口口口 |--①-|
①口口① |--②-|
口②②口 |③---|
口③③口 |----|
68
口①①口 |----|
①③②① |①---|
口口④口 |--②-|
口口口口 |③-④-|
69
③口口口 |①---|
③口口口 |②-③-|
口口口口
口①口②

口口口④
口口口④
口口口口 |--④-|
口⑤⑤口 |--⑤-|
70
④①①口 |①---|
④口口口 |②-③-|
口口③③ |--④-|
②⑤⑤② |--⑤-|
71
口③③口 |----|
②口口① |----|
②口口① |①--②|
口口口口 |--③-|
72
③④④③ |①---|
口口口口 |②-③-|
口②②口 |----|
口①①口 |④---|
73
⑤口口口 |①---|
⑤口②① |②-③-|
口口②① |--④-|
③③④④ |--⑤-|
74
口口口口 |----|
口口口口 |----|
口口口口 |----|
口口口口 |----|
75
口口口① |----|
口口口口 |----|
口口口口 |①---|
①口口口 |----|
76
①口口口 |①---|
口口口口 |----|
口口口② |----|
口口口① |--②-|
77
口③③① |①---|
②口口口 |②---|
口口口口 |③---|
口口口口 |----|
78
口口口口 |①-②-|
⑤②①⑤ |③-④-|
口口③口 |----|
口④口口 |--⑤-|
79
口⑤⑤口 |--①-|
口②①口 |②-③-|
④口口③ |--④-|
④口口③ |--⑤-|
80
口口口口 |①-②-|
口②①口 |③-④-|
口口③⑤ |----|
口④口口 |--⑤-|
81
口③③① |①---|
②口口口 |②---|
④口口④ |③---|
口口口口 |④---|
82
口口口口 |①-②-|
⑤②①⑤ |③-④-|
口口③口 |----|
口④口口 |--⑤-|
83
口口口口 |--①-|
口②①口 |②-③-|
④口③⑤ |④---|
④口口⑤ |⑤---|
84
②①①② |①-②-|
口③③口 |--③-|
⑥口口⑤ |④---|
⑥④④⑤ |⑤-⑥-|
85
③②①③ |--①-|
口口口口 |②---|
口①②口 |③---|
口④④口 |④---|
86
口口口口 |①-②-|
②①①② |③-④-|
③④④③ |----|
口口口口 |----|

不確定度: 0

最終更新:2014年08月01日 22:29