Ahead Of The Light
MIYAVI

BASIC

Level: 3
BPM: 130
Notes: 203

1
口口口口 |----|
口口口口 |----|
口口口口 |----|
口口口口 |----|
2
口口口口 |①---|
口①①口 |----|
口①①口 |----|
口口口口 |----|
3
口口口口 |①---|
①口口① |----|
口口口口 |----|
口口口口 |----|
4
口口口口 |①---|
口口口口 |----|
①③口① |②---|
口②口口 |③---|
5
口口口口 |①---|
①②②① |----|
口口口口 |②---|
口口口口 |----|
6
口口口口 |①---|
口口口口 |----|
①口③① |②---|
口口②口 |③---|
7
口口口口 |①---|
①②②① |----|
口口口口 |②---|
口口口口 |----|
8
口口口口 |①---|
口口口④ |②---|
口①②③ |③---|
口口口口 |④---|
9
口口口口 |①---|
③②①口 |②---|
④口口口 |③---|
口口口口 |④---|
10
口口口口 |①---|
口口口④ |②---|
口①②③ |③---|
口口口口 |④---|
11
口口口口 |①---|
③②①口 |②---|
④口口口 |③---|
口口口口 |④---|
12
口口口口 |①---|
口口口口 |②---|
口②④③ |③---|
口①口口 |④---|
13
口①口口 |①---|
口②④③ |②---|
口口口口 |③---|
口口口口 |④---|
14
口口口口 |①---|
口口口口 |②---|
③④②口 |③---|
口口①口 |④---|
15
口口①口 |①---|
③口②口 |②---|
口口口口 |③---|
口口口口 |----|
16
口口口口 |①---|
口①①口 |②---|
口②②口 |----|
口口口口 |----|
17
口口口口 |----|
口口口口 |----|
口口口口 |----|
口口口口 |----|
18
口口口口 |①---|
①口口① |②---|
②口口② |----|
口口口口 |----|
19
口口口口 |----|
口口口口 |----|
口口口口 |----|
口口口口 |----|
20
口口口口 |①---|
口口口口 |②---|
口①①口 |----|
口②②口 |----|
21
口口口口 |----|
口口口口 |----|
口口口口 |----|
口口口口 |----|
22
口口口口 |①---|
口口口口 |②---|
①口口① |----|
②口口② |----|
23
口口口口 |----|
口口口口 |----|
口口口口 |----|
口口口口 |----|
24
口口口口 |①---|
口②④口 |②---|
口①③口 |③---|
口口口口 |④---|
25
①②③④ |①---|
口口口口 |②---|
口口口口 |③---|
口口口口 |④---|
26
口口口口 |①---|
口②④口 |②---|
口①③口 |③---|
口口口口 |④---|
27
①②③④ |①---|
口口口口 |②---|
口口口口 |③---|
口口口口 |④---|
28
口口口口 |①---|
口①③口 |②---|
口②④口 |③---|
口口口口 |④---|
29
口口口口 |①---|
口口口口 |②---|
口口口口 |③---|
①②③④ |④---|
30
口口口口 |①---|
口①③口 |②---|
口②④口 |③---|
口口口口 |④---|
31
口口口口 |①---|
口口口口 |②---|
口口口口 |③---|
①②③④ |④---|
32
口口口口 |①---|
口①①口 |----|
口口口口 |----|
口口口口 |----|
33
口口口口 |①---|
口口口口 |----|
口①①口 |----|
口口口口 |----|
34
口口口口 |①---|
①口口① |----|
口口口口 |----|
口口口口 |----|
35
口口口口 |①---|
口口口口 |----|
①口口① |----|
口口口口 |----|
36
口口口口 |①---|
②①③④ |②---|
口口口口 |③---|
口口口口 |④---|
37
口口口口 |①---|
口口口口 |②---|
②①③④ |③---|
口口口口 |④---|
38
口口口口 |①---|
③①①③ |②---|
④②②④ |③---|
口口口口 |④---|
39
口口口口 |①---|
口①①口 |----|
口①①口 |----|
口口口口 |----|
40
口口③④ |①---|
口②口口 |②---|
口①口口 |③---|
口口口口 |④---|
41
④③口口 |①---|
口口②口 |②---|
口口①口 |③---|
口口口口 |④---|
42
口口口口 |①---|
口①①口 |----|
口口口口 |----|
口口口口 |----|
43
口口口口 |----|
口口口口 |----|
口口口口 |----|
口口口口 |----|
44
口口口口 |①---|
口口口口 |②---|
①②③④ |③---|
口口口口 |④---|
45
口口口口 |①---|
①②③④ |②---|
口口口口 |③---|
口口口口 |④---|
46
口口口口 |①---|
口口口口 |----|
口①①口 |----|
口口口口 |----|
47
口口口口 |----|
口口口口 |----|
口口口口 |----|
口口口口 |----|
48
口口口口 |①---|
口①①口 |----|
②口口② |②---|
③口口③ |③---|
49
口口口口 |①---|
口①①口 |----|
②口口② |②---|
③口口③ |③---|
50
口口口口 |①---|
口①①口 |----|
口②②口 |②---|
口口口口 |----|
51
口口口口 |①---|
①②③④ |②---|
口口口口 |③---|
口口口口 |④---|
52
口①①口 |①---|
口②②口 |②---|
口③③口 |③---|
口④④口 |④---|
53
①口口① |①---|
②口口② |②---|
③口口③ |③---|
④口口④ |④---|
54
口④④口 |①---|
口③③口 |②---|
口②②口 |③---|
口①①口 |④---|
55
①口口① |①---|
②口口② |②---|
③口口③ |③---|
④口口④ |④---|
56
口口口口 |①---|
口口口口 |----|
口口口口 |----|
口①①口 |----|

不確定度: 0

最終更新:2014年08月01日 22:27