Ahead Of The Light
MIYAVI

ADVANCED

Level: 7
BPM: 130
Notes: 522

1
口口口口 |----|
口口口口 |----|
①口口① |----|
②①①② |①-②-|
2
口口口口 |①---|
①口口① |----|
口口口口 |----|
口口口口 |----|
3
口口口口 |①---|
口口口口 |----|
②①①② |----|
口②②口 |--②-|
4
口③口② |①-②③|
口口口口 |-④-⑤|
口④口⑤
①口口①

口口口口
口⑥口口
口口口口 |-⑥-⑦|
⑨⑦⑧口 |⑧-⑨-|
5
③②口口 |①-②③|
⑧口⑧① |-④-⑤|
⑦④⑦⑤ |--⑥-|
⑥口⑥口 |⑦-⑧-|
6
口③口② |①-②③|
口⑥口① |-④-⑤|
口④口⑤ |-⑥-⑦|
⑨⑦⑧口 |⑧-⑨-|
7
③②口口 |①-②③|
口口口① |-④-⑤|
口④口⑤ |--⑥-|
⑦⑥⑥⑦ |⑦---|
8
口口②口 |①-②③|
口③口⑤ |-④-⑤|
口口口①
⑤④④口

口口口口
⑥口口口
⑧⑦⑦⑧ |-⑥-⑦|
口口口⑥ |--⑧-|
9
④③口④ |①-②③|
⑤口②⑤ |-④-⑤|
口口口口
口①①口

口口口口
口⑧⑧口
口口口口 |--⑥-|
⑦⑥⑥⑦ |⑦-⑧-|
10
口口口⑤ |①-②③|
⑤口口口 |-④-⑤|
①口②①
④③口④

⑥口口口
口口口⑥
口⑦⑦口 |-⑥-⑦|
⑧口口⑧ |--⑧-|
11
④③口④ |①-②③|
口口②口 |-④-⑤|
①口口①
口⑤⑤口

口口口口
⑦口口⑥
⑥口口⑦ |--⑥-|
口口口口 |--⑦-|
12
⑧⑦口口 |①-②-|
⑥⑤口口 |③-④-|
④③口口 |⑤-⑥-|
②①①口 |⑦-⑧-|
13
口口⑦⑧ |①-②-|
口口⑤⑥ |③-④-|
口口③④ |⑤-⑥-|
口①①② |⑦-⑧-|
14
口口口口 |①-②-|
口④④口 |③-④-|
③②②③
①口口①

⑦⑥⑥⑦
⑤口口⑤
⑧口口⑧ |⑤-⑥-|
口口口口 |⑦-⑧-|
15
口⑤④口 |①-②-|
口①①口 |③-④⑤|
口口口口
③②②③

口口口口
口口口口
口口口口 |----|
⑥口口⑥ |--⑥-|
16
口①①③ |①-②-|
口口口口 |---③|
口②②口
口口口口

④口口口
口口口口
⑤口⑥口 |-④-⑤|
口口口口 |--⑥-|
17
口口①③ |①--②|
口②口口 |-③-④|
⑤⑥⑦④ |--⑤-|
⑤⑥⑦口 |⑥-⑦-|
18
④①②③ |①-②-|
口①②口 |---③|
⑤口⑥口 |-④-⑤|
口口口口 |--⑥-|
19
口口①口 |①--②|
⑦口③⑦ |-③-④|
⑥②口⑥ |--⑤-|
⑤④口⑤ |⑥-⑦-|
20
口①①口 |①-②-|
③口口口 |---③|
口口口口
口②②口

口口④口
口口口口
口口⑤口 |-④-⑤|
口⑥口口 |--⑥-|
21
口③口口 |①--②|
口①口② |-③-④|
口④口口
口口口口

口口口口
⑥⑥⑦⑦
口口⑤口 |--⑤-|
口口口口 |⑥-⑦-|
22
口①①④ |①-②-|
⑥口口口 |---③|
口⑤口③ |-④-⑤|
口②②口 |--⑥-|
23
口①口③ |①--②|
④口②口 |-③-④|
口⑤⑤⑦ |--⑤-|
口口口⑥ |⑥-⑦-|
24
口③口② |①-②③|
口⑥口① |-④-⑤|
口④口⑤ |-⑥-⑦|
⑨⑦⑧口 |⑧-⑨-|
25
③②口口 |①-②③|
口⑥口① |-④-⑤|
口④口⑤ |--⑥-|
⑧口⑦口 |⑦-⑧-|
26
口③②② |①-②③|
口⑥①① |-④-⑤|
口④口⑤ |-⑥-⑦|
⑨⑦⑧口 |⑧-⑨-|
27
③②口口 |①-②③|
⑧口⑧① |-④-⑤|
⑦④⑦⑤ |--⑥-|
⑥口⑥口 |⑦-⑧-|
28
①口②口 |①-②-|
口⑤口④ |-③-④|
⑦③口口 |-⑤-⑥|
口⑥口口 |--⑦-|
29
口口口⑤ |①-②③|
口口④口 |-④-⑤|
口①口口
口口③②

⑦口口口
⑧口口口
口⑥口口 |--⑥-|
口口口口 |⑦-⑧-|
30
口⑧⑦⑨ |①-②③|
⑤口④口 |-④-⑤|
①口⑥口 |-⑥-⑦|
②口③口 |⑧-⑨-|
31
口口口口 |①-②③|
⑤口④口 |-④-⑤|
①口口口 |----|
口口②③ |----|
32
口①口口 |①---|
口口③口 |----|
①②①② |②---|
口口②口 |③---|
33
口①口① |①---|
口③口口 |----|
口②①口 |②---|
②口②口 |③---|
34
口①口口 |①---|
口口③口 |----|
①②①② |②---|
口口②口 |③---|
35
口①口① |①-②-|
口口口口 |③-④-|
④③①口
②口口口

⑧⑦口口
⑥⑤口口
口口口口 |⑤-⑥-|
口口口口 |⑦-⑧-|
36
口口⑦⑧ |①-②-|
口口⑤⑥ |③-④-|
口口③④ |⑤-⑥-|
口①①② |⑦-⑧-|
37
口口口口 |①-②-|
口④④口 |③-④-|
③②②③
①口口①

⑦⑥⑥⑦
⑤口口⑤
⑧口口⑧ |⑤-⑥-|
口口口口 |⑦-⑧-|
38
口口口口 |①-②-|
④①①④ |③-④-|
口口口口
③②②③

口⑤⑤口
口⑦口口
⑧口⑥⑧ |⑤-⑥⑦|
口⑨⑨口 |-⑧⑨-|
39
口口口口 |①---|
①口口① |----|
②口口② |----|
③②②③ |②-③-|
40
口口④口 |①---|
①口③① |②---|
口口②口 |③---|
口口口口 |④---|
41
口②口口 |①---|
口③口口 |②---|
⑤④口⑤ |③---|
①⑤⑤① |④-⑤-|
42
口口③② |①---|
口口口口 |②--③|
口口口口
①口口①

⑥口口⑥
口④口口
口口⑤口 |-④-⑤|
口口口口 |--⑥-|
43
⑦④③⑦ |①-②-|
口口⑤② |--③④|
口⑥口口 |-⑤-⑥|
①口口① |--⑦-|
44
⑥④④⑥ |--①-|
③口口② |②-③-|
③口口② |④-⑤-|
⑤①①⑤ |--⑥-|
45
口②②口 |--①-|
⑤③③④ |②---|
⑤口口④ |③---|
口①①口 |④-⑤-|
46
②①①② |--①-|
口口口口 |----|
口口口口 |--②-|
口口口口 |----|
47
口口口口 |①---|
②口口① |②---|
口口口口
口口口口

⑤⑤口口
口口④④
口口③③ |--③-|
口口口口 |④-⑤-|
48
⑧⑧③① |①-②-|
②④口口 |③-④-|
②④口⑦ |⑤-⑥-|
⑥⑥口⑤ |⑦-⑧-|
49
口口③口 |①-②-|
②④口① |③-④-|
②④口口
口口口口

口口口口
⑦口口⑧
⑦口口⑧ |⑤-⑥-|
⑥⑥⑤口 |⑦-⑧-|
50
①口口① |①---|
口口口口 |--②-|
口口口口
口②②口

③口口③
口口口口
口口口口 |----|
口口口口 |--③-|
51
口②②口 |--①-|
口口口口 |②-③-|
口口口口
③①①③

④⑦⑦④
口⑤⑤口
口口口口 |④-⑤-|
口⑥⑥口 |⑥-⑦-|
52
口口口口 |①---|
①口口① |②---|
④③②口 |③---|
口口口口 |④---|
53
口⑥⑤① |①-②-|
②口⑤① |③-④-|
④⑧⑦⑦ |⑤-⑥-|
口口③③ |⑦-⑧-|
54
口口口口 |①-②-|
③口口② |③-④-|
③口口口
①①口④

⑦⑦口口
口⑤⑥⑧
口⑤口口 |⑤-⑥-|
口口口口 |⑦-⑧-|
55
口口①① |①-②-|
口口口口 |③-④-|
②④口口
②④③③

⑧⑥口⑨
口⑥⑤⑤
口口⑦⑦ |⑤-⑥-|
口口口口 |⑦-⑧⑨|

不確定度: 0

最終更新:2014年08月01日 22:27