1 2 3 ~恋がはじまる~


BASIC

Level: 3
BPM: 158
Notes: 181

1
口口口口 |----|
口口口口 |----|
口口口口 |----|
口口口口 |----|
2
口口口口 |①---|
口①①口 |----|
口口口口 |----|
口口口口 |----|
3
口口口口 |----|
口口口口 |----|
口口口口 |----|
口口口口 |----|
4
口口口口 |①---|
口口口口 |----|
口①①口 |----|
口口口口 |----|
5
①口口① |①---|
②口口② |----|
口口口口 |②---|
口口口口 |----|
6
口口口口 |①---|
口口口口 |----|
①口口① |----|
口口口口 |----|
7
口口口口 |----|
口①①口 |----|
口①①口 |①---|
口口口口 |----|
8
①口口口 |①---|
口口口口 |----|
口口口口 |----|
口口口口 |----|
9
口口口① |①---|
口②③④ |--②-|
口口口口 |--③-|
口口口口 |--④-|
10
口口口口 |----|
口口口口 |----|
口口口口 |----|
口口口口 |----|
11
口口口口 |----|
口①①口 |①---|
口口口口 |----|
口口口口 |----|
12
口口口口 |----|
口口口口 |----|
口口口口 |----|
口口口口 |----|
13
口口口口 |①---|
口口口口 |----|
①②口口 |②---|
口口口口 |----|
14
口口口口 |①---|
口口口口 |----|
口口①口 |----|
口口口口 |----|
15
口①①口 |①---|
口②③④ |--②-|
口口口口 |--③-|
口口口口 |--④-|
16
口口口口 |----|
口①口口 |----|
口②口口 |--①-|
口③口口 |②-③-|
17
口口口口 |----|
口口①口 |----|
口口②口 |--①-|
口口③口 |②-③-|
18
口③口口 |----|
口②口口 |----|
口①口口 |--①-|
口口口口 |②-③-|
19
口口口① |----|
口口口口 |----|
口口口口 |①---|
口口口口 |----|
20
口口口口 |①---|
①口口② |----|
口口口口 |②---|
口口口口 |----|
21
口口口口 |①---|
口口口口 |----|
①口口② |②---|
口口口口 |----|
22
口口口口 |①---|
口①①口 |----|
口②②口 |②---|
口口口口 |----|
23
口口口口 |----|
口口口口 |----|
口口口口 |----|
口口口口 |----|
24
口①②口 |①---|
口①③口 |----|
口口④口 |--②-|
口口口口 |③-④-|
25
①口口口 |----|
②口口口 |--①-|
③口口口 |②-③-|
口口口口 |----|
26
②口口① |①---|
②口口① |----|
口口口口 |----|
口口口口 |②---|
27
口①口口 |----|
口②口口 |--①-|
口③口口 |②-③-|
口口口口 |----|
28
②口口① |①---|
口口口① |----|
口口口口 |②---|
口口口口 |----|
29
口口口① |①---|
②口口口 |----|
口口口口 |②---|
口口口口 |----|
30
口口口口 |①---|
口口口① |----|
②口口口 |②---|
口口口口 |----|
31
口口口口 |----|
口口口口 |----|
口口口口 |----|
口口口口 |----|
32
①口口② |①---|
①口口③ |----|
口口口④ |--②-|
口口口口 |③-④-|
33
③口口口 |----|
②口口口 |--①-|
①口口口 |②-③-|
口口口口 |----|
34
口④口口 |①---|
口③口① |----|
口②口① |--②-|
口口口口 |③-④-|
35
①口口口 |----|
口口口口 |----|
口口口口 |①---|
口口口口 |----|
36
口口口口 |①---|
口口口口 |②---|
①②③④ |③---|
口口口口 |④---|
37
口口口口 |①---|
④③②① |②---|
口口口口 |③---|
口口口口 |④---|
38
②①①② |①---|
③口口③ |②---|
④口口④ |③---|
口口口口 |④---|
39
口口口口 |①---|
口④④口 |②---|
口③③口 |③---|
①②②① |④---|
40
②①①② |①---|
③口口③ |②---|
④口口④ |③---|
口口口口 |④---|
41
②口口③ |①---|
口口口口 |----|
口口口口 |--②-|
口①①口 |③---|
42
口口口口 |①---|
①②③口 |②---|
④口口口 |③---|
口口口口 |④---|
43
④口口③ |①---|
口口口口 |②---|
口①②口 |③---|
口口口口 |④---|
44
口口口口 |①---|
②口口① |②---|
口口口③ |③---|
口口口口 |----|
45
口口口口 |----|
口口口口 |----|
口口口口 |----|
口口口口 |----|
46
口口口口 |①---|
口③②① |②---|
口口口④ |③---|
口口口口 |④---|
47
③口口④ |①---|
口口口口 |②---|
口②①口 |③---|
口口口口 |④---|
48
口口口口 |①---|
①口口② |②---|
③口口口 |③---|
口口口口 |----|
49
口口口口 |----|
①口口口 |----|
口口口口 |①---|
口口口口 |----|
50
口口口口 |①---|
口口口① |----|
②口口口 |②---|
口口口口 |----|
51
口②②口 |①---|
口口口口 |----|
口口口① |②---|
口口口口 |----|
52
口口口口 |①---|
口①①口 |----|
②口口口 |②---|
口口口口 |----|
53
口口口口 |①---|
口口口口 |----|
口口口① |②---|
口②②口 |----|
54
口①①口 |①---|
口口口口 |----|
口口口口 |②---|
②口口② |----|
55
①口口① |①---|
口口口口 |----|
口②②口 |②---|
口口口口 |----|
56
③①①③ |①---|
口口口口 |----|
口口口口 |②---|
口②②口 |--③-|
57
口口口口 |----|
①口口② |①---|
③口口口 |②---|
口口口口 |③---|
58
口②②口 |①---|
口口口口 |----|
口口口① |②---|
口口口口 |----|
59
口口口口 |----|
口口口口 |----|
口口口口 |----|
口口口口 |----|
60
口口口口 |----|
口口口口 |----|
口口口口 |----|
口口口口 |----|
61
口口口口 |----|
口口口口 |----|
口口口口 |----|
口口口口 |----|
62
口①①口 |①---|
②口口口 |----|
口口口口 |----|
口口口口 |②---|
63
口口口口 |--①-|
口口口① |----|
口②②口 |②---|
口口口口 |----|
64
口①①口 |①---|
口口口口 |----|
口口口口 |----|
口口口口 |----|

不確定度: 0

最終更新:2014年08月01日 22:26