1 2 3 ~恋がはじまる~


ADVANCED

Level: 6
BPM: 158
Notes: 283

1
口口口口 |----|
口口口口 |----|
口口口口 |----|
口口口口 |----|
2
口口②口 |①---|
口①③口 |----|
口口④口 |②-③-|
口口⑤口 |④-⑤-|
3
口口口口 |----|
①口口② |----|
口口口口 |①---|
口口口口 |②---|
4
口①②口 |①---|
口口口口 |----|
口③口口 |②--③|
口口口④ |--④-|
5
①口口口 |①---|
口口口② |②---|
③口口口 |③---|
口口口④ |④---|
6
①口口② |①-②-|
⑤口口口 |③-④-|
③口口④ |⑤---|
⑦口口⑥ |⑥-⑦-|
7
口口口口 |--①-|
②③③① |②---|
口③③口 |③---|
口口口口 |----|
8
口口口口 |①---|
①③④口 |----|
口口②口 |--②-|
口口口口 |③-④-|
9
⑤①口③ |①---|
口口口口 |②-③-|
口口口② |--④-|
④口口口 |--⑤-|
10
口口口口 |----|
口口口口 |----|
口口口口 |----|
口口口口 |----|
11
②口口④ |----|
口口口口 |①-②-|
①口口口 |--③-|
口口口③ |--④-|
12
口口口口 |----|
①口口② |----|
口口口口 |----|
口口口口 |①-②-|
13
口口口② |--①-|
口③口口 |--②-|
①口④口 |--③-|
口⑤口口 |④-⑤-|
14
口口口口 |----|
口口口口 |----|
口口口口 |----|
①口口口 |--①-|
15
口口①③ |①---|
④口口口 |②-③-|
口口口⑤ |--④-|
口②口口 |--⑤-|
16
口口口口 |----|
口口③口 |----|
①②口口 |--①-|
口口口口 |②-③-|
17
口口③口 |----|
①②口口 |----|
口口口口 |--①-|
口口口口 |②-③-|
18
①②口口 |----|
口口口口 |----|
口口③口 |--①-|
口口口口 |②-③-|
19
口④口① |----|
②口口③ |①---|
口口口口 |②-③-|
口口口口 |--④-|
20
口口①口 |①---|
④口口④ |②-③-|
口②③口 |--④-|
口口口口 |----|
21
口口口口 |①---|
口口口口 |②---|
①②③④ |③---|
口口口口 |④---|
22
口口口口 |①---|
①口③口 |--②-|
口口口口 |③---|
口口②口 |----|
23
口口口口 |----|
口口口口 |----|
口口口口 |----|
口口口口 |----|
24
①③口② |①-②-|
①③口② |③---|
④⑤⑥口 |--④-|
口口口口 |⑤-⑥-|
25
口口口口 |----|
口口口口 |--①-|
口口口口 |②-③-|
①②③口 |----|
26
①③口② |①-②-|
①③口② |③---|
口口口口 |----|
④口口⑤ |④-⑤-|
27
口口口口 |----|
①②③口 |--①-|
口口口口 |②-③-|
口口口口 |----|
28
口②③① |①---|
口口口口 |②-③-|
口口口①
口口口口

口口口口
口口口口
④口口⑤ |--④-|
口口口口 |--⑤-|
29
口口口口 |----|
口口口口 |①---|
③①②口 |②---|
口口口口 |③---|
30
口口口口 |①---|
口②③④ |--②③|
口口口① |④---|
口口口口 |----|
31
口口口口 |----|
口口口口 |----|
口口口口 |----|
口口口口 |----|
32
①③口② |①-②-|
①③口② |③---|
④⑤⑥口 |--④-|
口口口口 |⑤-⑥-|
33
口口口口 |----|
口口口口 |--①-|
口口口口 |②-③-|
①②③口 |----|
34
⑥③口口 |①-②-|
①③⑤② |③---|
①口口② |--④-|
口④口口 |⑤-⑥-|
35
口口口口 |----|
①口口② |----|
口③口口 |①--②|
口口口口 |--③-|
36
②口口③ |①---|
口口①口 |②---|
口口口口 |③---|
④口口口 |④---|
37
口口口口 |①---|
②④⑤③ |②---|
口④⑤口 |③---|
口口口① |④-⑤-|
38
①②③④ |①---|
口口口口 |②---|
口口口口 |③---|
口口口口 |④---|
39
口口口口 |①---|
①②③④ |②---|
口口口口 |③---|
口口口口 |④---|
40
口口口口 |①---|
口口口口 |②---|
①②③④ |③---|
口口口口 |④---|
41
①口口② |①-②-|
③⑤⑥④ |③-④-|
口⑤⑥口 |--⑤-|
口口口口 |⑥---|
42
③口口口 |①---|
②③口口 |②---|
①③口④ |③---|
②口口口 |④---|
43
③④口② |①---|
⑤⑥②① |②---|
口口②口 |③-④-|
口口口① |⑤-⑥-|
44
口口口③ |①---|
口口口口 |②-③-|
①口口② |----|
口口口口 |----|
45
口口口口 |----|
口口口口 |----|
口口口口 |----|
口口口口 |----|
46
③口口口 |①---|
②③口口 |②---|
①③口④ |③---|
②口口口 |④---|
47
③④口② |①---|
⑤⑥②① |②---|
口口②口 |③-④-|
口口口① |⑤-⑥-|
48
口口口② |①---|
口口口口 |②-③-|
①口口③ |----|
口口口口 |----|
49
口口口口 |----|
①②③④ |----|
口口口口 |①-②-|
口口口口 |③-④-|
50
口①②口 |----|
口口口口 |①-②-|
口③口④ |--③-|
口口口口 |--④-|
51
口口口口 |----|
①②③④ |----|
口口口口 |①-②-|
口口口口 |③-④-|
52
口③口④ |----|
口口口口 |①-②-|
口①②口 |--③-|
口口口口 |--④-|
53
口口口口 |----|
口③口口 |----|
①口口口 |①--②|
口口②口 |--③-|
54
口口①口 |①---|
口口口口 |--②-|
②口口⑤ |③-④-|
口③④口 |--⑤-|
55
口口口口 |----|
①②③口 |----|
口口口口 |①--②|
口口口口 |--③-|
56
口口口① |①---|
口口口⑤ |--②-|
②③④口 |③-④-|
口口口口 |--⑤-|
57
①口口① |----|
口②②口 |①---|
③口口③ |②---|
口口口口 |③---|
58
③④⑤⑥ |①---|
②口口② |--②-|
口口口口 |③-④-|
口①①口 |⑤-⑥-|
59
口口口口 |----|
口口口② |----|
口口口口 |①---|
口①口口 |②---|
60
口①口口 |①---|
②口口口 |----|
口口口③ |②--③|
口④口口 |--④-|
61
口口①口 |①---|
口口口③ |②---|
②口口口 |③---|
口④口口 |④---|
62
①⑥⑦② |①-②-|
③⑥⑦④ |③-④-|
⑤口口口 |⑤---|
口口口口 |⑥-⑦-|
63
③口口③ |--①-|
口口口口 |②---|
口①②口 |③---|
口①②口 |----|
64
口口口口 |①---|
口口口口 |----|
①①①① |----|
口口口口 |----|

不確定度: 0

最終更新:2014年08月01日 22:13