小野秀幸

EXTREME

Level: 9
BPM: 178
Notes: 504

1
口口口口 |----|
口口口口 |----|
口口口口 |----|
口口口口 |----|
2
口②口④ |----|
口口口口 |----|
①口③口 |①-②-|
口口口口 |③-④-|
3
口口②口 |①-②-|
口口③③ |--③-|
④④⑥口 |--④-|
口⑤①口 |--⑤⑥|
4
③口口口 |①---|
口①口口 |②-③-|
口⑤口口 |--④-|
②口口④ |--⑤-|
5
口②④口 |①-②-|
口口①口 |----|
口口口口 |----|
口口③口 |③-④-|
6
口②口④ |----|
口口口口 |----|
①口③口 |①-②-|
口口口口 |③-④-|
7
口口②口 |①-②-|
口口③③ |--③-|
④④⑥口 |--④-|
口⑤①口 |--⑤⑥|
8
③口口口 |①---|
口①口口 |②-③-|
⑤口口口 |----④-|
②口口④ |--⑤---|
9
④②②④ |①---|
口口口① |--②-|
口口口口 |----|
口③③口 |③-④-|
10
口②口④ |----|
口口口口 |----|
①口③口 |①-②-|
口口口口 |③-④-|
11
口口②口 |①-②-|
口口③③ |--③-|
④④⑥口 |--④-|
口⑤①口 |--⑤⑥|
12
③口口口 |①---|
口①口口 |②-③-|
口⑤口口 |--④-|
②口口④ |--⑤-|
13
口②④口 |①-②-|
口口①口 |----|
口口口口 |----|
口口③口 |③-④-|
14
口②口④ |----|
口口口口 |----|
①口③口 |①-②-|
口口口口 |③-④-|
15
口口②口 |①-②-|
口口③③ |--③-|
④④⑥口 |--④-|
口⑤①口 |--⑤⑥|
16
③口口口 |①---|
口①⑥口 |②-③-|
口⑤口口 |----④-|
②口口④ |--⑤⑥|
17
②①口② |①---|
口口口口 |--②-|
口口口口 |----|
口口口口 |----|
18
口口口口 |----|
口④口口 |----|
②③④口 |①-②-|
①②口口 |③-④-|
19
口②口口 |①---|
口口①口 |②-③-|
口口口③ |----|
口口口口 |----|
20
口⑤⑤口 |--①-|
口③口口 |②-③-|
口口②口 |--④-|
口④④① |--⑤-|
21
口口⑤口 |----|
口口①口 |--①②|
口②口口 |③---|
口④③口 |④-⑤-|
22
口口口口 |----|
口口口口 |----|
口口口口 |----|
口口口口 |----|
23
①②口口 |----|
②③④口 |----|
口④口口 |①-②-|
口口口口 |③-④-|
24
口口口口 |--①-|
口口口③ |--②-|
②口口口 |--③-|
口口口① |----|
25
口②②口 |①---|
口口口口 |--②-|
口口口口 |----|
口①①口 |----|
26
口口口口 |----|
口④口口 |----|
②③④口 |①-②-|
①②口口 |③-④-|
27
口②口口 |①---|
口口①口 |②-③-|
口口口③ |----|
口口口口 |----|
28
口⑤⑤口 |--①-|
口③口口 |②-③-|
口口②口 |--④-|
口④④① |--⑤-|
29
口口⑤口 |----|
口口①口 |--①②|
口②口口 |③---|
口④③口 |④-⑤-|
30
口口口口 |----|
口口口口 |----|
口口口口 |----|
口口口口 |----|
31
①②口口 |----|
②③④口 |----|
口④口口 |①-②-|
口口口口 |③-④-|
32
口口口口 |--①-|
口口口③ |--②-|
②口口口 |--③-|
口口口① |----|
33
③⑤⑤③ |①---|
口②②口 |②-③-|
④口口④ |----|
口①①口 |④-⑤-|
34
⑩⑧⑨⑪ |----|
①⑥⑦① |①-②③|
口④⑤口 |④⑤⑥⑦|
口②③口 |⑧⑨⑩⑪|
35
口口口口 |①---|
口④口口 |----|
①口③① |②---③-|
口口口② |--④---|
36
口④口口 |①-②-|
⑤口③⑤ |③-④-|
口②口口 |--⑤-|
口⑥①口 |--⑥-|
37
④③①口 |①---|
口口口口 |②-③-|
口口口口 |----|
④口②口 |--④-|
38
口口口口 |--①-|
口②④⑥ |②-③-|
①③⑤⑦ |④-⑤-|
口口口口 |⑥-⑦-|
39
口②口① |①---|
口口③口 |----|
口④口口 |②---③-|
口口口口 |--④---|
40
⑤④口⑤ |①---|
②口③② |②---|
②口④② |③-④-|
口③①口 |--⑤-|
41
口口口口 |----|
①口口① |--①-|
口口口口 |----|
口口口口 |----|
42
口⑧口口 |①-②-|
⑥⑦③口 |③-④-|
⑤④②① |⑤-⑥-|
口口口口 |⑦-⑧-|
43
口口口① |①---|
口口口口 |----|
口口口口
口口口口

口口口④
③口口口
口口口② |②---③-|
口口口口 |--④---|
44
口①口口 |①-②-|
⑤口②⑤ |③-④-|
口③口口 |--⑤-|
⑥口④⑥ |--⑥-|
45
①⑤③① |①---|
口口口口 |②-③-|
口口口口 |----|
口④②口 |④-⑤-|
46
①口口口 |----|
口③口口 |--①-|
口②④口 |--②-|
①口口口 |③-④-|
47
口口口③ |①-②-|
⑥口①② |③---|
口口口⑤ |④---⑤-|
④口口口 |--⑥---|
48
⑤①①⑤ |①---|
口口④口 |②---|
口③口口 |③-④-|
口②②口 |--⑤-|
49
口口口口 |----|
口口口口 |--①-|
①①①① |----|
口口口口 |----|
50
⑤⑧⑨口 |①-②-|
①⑩④⑦ |③④⑤-|
③⑥⑪口 |⑥⑦⑧-|
口⑫②口 |⑨⑩⑪⑫|
51
口口⑤口 |①---|
③口口口 |②-③-|
口口口口 |--④-|
②口④① |--⑤-|
52
①②口⑤ |--①②|
口③口口 |③-④-|
口口⑥口 |⑤-⑥-|
口⑦口④ |--⑦-|
53
口口口口 |①---|
①⑥④② |②-③-|
口⑦⑤③ |④-⑤-|
口口口口 |⑥-⑦-|
54
①口⑦⑥ |①-②-|
②口口口 |③-④-|
③口口口 |⑤---|
④⑤口口 |--⑥⑦|
55
②③口口 |①-②-|
④⑤①口 |③-④-|
⑥⑦口口 |⑤-⑥-|
⑧口口口 |⑦-⑧-|
56
口口⑦⑧ |①-②-|
口口⑤⑥ |③-④-|
口口③④ |⑤-⑥-|
口口①② |⑦-⑧-|
57
②③⑫⑪ |①-②③|
口④口口 |④-⑤⑥|
⑤⑥⑨⑧ |⑦-⑧⑨|
①⑦⑩口 |⑩-⑪⑫|
58
口⑤口口 |①-②-|
口⑥①④ |③-④-|
口⑦口⑨ |--⑤⑥|
②⑧口③ |⑦⑧⑨-|
59
⑨⑧③② |①-②③|
①口④口 |④-⑤-|
⑦口⑥口 |⑥-⑦-|
⑤口口口 |⑧-⑨-|
60
口口口② |--①-|
④口口⑥ |--②-|
口口口口 |③-④-|
口③⑤① |⑤-⑥-|
61
⑪②③口 |①-②③|
口④⑤口 |④⑤⑥-|
①⑥⑧⑦ |⑦⑧⑨-|
⑩口⑨口 |⑩-⑪-|
62
口口②① |--①-|
口④③② |②-③-|
⑥⑤④口 |④-⑤-|
⑦⑥口口 |⑥-⑦-|
63
⑤⑥口口 |①-②-|
口⑦口④ |③-④-|
口口⑧③ |--⑤⑥|
口口①② |⑦-⑧-|
64
口口①口 |①---|
③口口⑤ |②-③-|
②口口④ |④-⑤-|
口口口⑥ |--⑥-|
65
②④⑤① |①-②-|
口⑥⑦⑪ |③-④⑤|
口⑧⑨⑫ |⑥⑦⑧⑨|
③⑩口口 |⑩-⑪⑫|
66
④⑥口⑧ |①-②-|
口口口口 |③-④-|
⑤口⑦口 |⑤-⑥-|
③口②① |⑦-⑧-|
67
口口②口 |①-②-|
口口③③ |--③-|
④④⑥口 |--④-|
口⑤①口 |--⑤⑥|
68
③口口口 |①---|
口①口口 |②-③-|
口⑤口口 |--④-|
②口口④ |--⑤-|
69
口②④口 |①-②-|
口口①口 |----|
口口口口 |----|
口口③口 |③-④-|
70
口②口④ |----|
口口口口 |----|
①口③口 |①-②-|
口口口口 |③-④-|
71
口口②口 |①-②-|
口口③③ |--③-|
④④⑥口 |--④-|
口⑤①口 |--⑤⑥|
72
③口口口 |①---|
口①口口 |②-③-|
⑤口口口 |----④-|
②口口④ |--⑤---|
73
⑨④④⑨ |①-②③|
⑤⑥⑦① |--④-|
口②③口 |⑤⑥⑦-|
口⑧⑧口 |⑧-⑨-|
74
口④口⑥ |①-②-|
口口口② |----|
③口⑤口 |③-④-|
口口口① |⑤-⑥-|
75
口口②口 |①-②-|
口口③③ |--③-|
④④⑥口 |--④-|
口⑤①口 |--⑤⑥|
76
③口口口 |①---|
口①口口 |②-③-|
口⑤口口 |--④-|
②口口④ |--⑤-|
77
口②④口 |①-②-|
口口①口 |----|
口口口口 |----|
口口③口 |③-④-|
78
口⑤口⑦ |--①-|
①口③口 |②-③-|
④②⑥口 |④-⑤-|
口口口口 |⑥-⑦-|
79
口口②口 |①-②-|
口口③③ |--③-|
④④⑥口 |--④-|
口⑤①口 |--⑤⑥|
80
③口口口 |①---|
口①⑥口 |②-③-|
口⑤口口 |----④-|
②口口④ |--⑤⑥|
81
②①口② |①---|
口④口④ |--②-|
口口③口 |----|
口口口口 |③-④-|


不确定度: 0

最終更新:2012年11月08日 18:23