RIGHT NOW
GOOD4NOTHING

ADVANCED

Level: 6
BPM: 184
Notes: 357

全程BPM在184附近飄忽不定
1
口口口口 |----|
口口口口 |----|
口口口口 |----|
口口口口 |----|
2
口口口口 |①---|
①②③④ |②---|
口口口口 |③---|
口口口口 |④---|
3
口②口口 |①---|
口③口口 |②---|
口④口口 |③---|
口①①口 |④---|
4
口口①口 |----|
口口②口 |①---|
口口③口 |②---|
口口口口 |③---|
5
①②③口 |----|
口口口口 |①---|
口口口口 |②---|
口口口口 |③---|
6
口口口① |①---|
②③口④ |②---|
②口口④ |③---|
口口口口 |④---|
7
口①口口 |----|
口②口口 |①---|
口③口口 |②---|
口口口口 |③---|
8
口口①口 |----|
口口②口 |①---|
口口③口 |②---|
口口口口 |③---|
9
①②③口 |----|
口口口口 |①---|
口口口口 |②---|
口口口口 |③---|
10
口口口① |①---|
②③口④ |②---|
②口口④ |③---|
口口口口 |④---|
11
①②口口 |①-②-|
口③口口 |--③-|
口④口口 |--④-|
口⑤口口 |--⑤-|
12
口口口⑤ |①-②-|
口口口④ |--③-|
口口口③ |--④-|
口口①② |--⑤-|
13
口②①口 |①-②-|
口③口口 |--③-|
口④口口 |--④-|
口⑤口口 |--⑤-|
14
口口口④ |--①-|
口口口③ |--②-|
口口口② |--③-|
口口口① |--④-|
15
口②①口 |①-②-|
口③口口 |--③-|
口④口口 |--④-|
口⑤口口 |--⑤-|
16
口口口⑤ |①-②-|
口口口④ |--③-|
口口口③ |--④-|
口口①② |--⑤-|
17
口②①口 |①-②-|
口③口口 |--③-|
口④口口 |--④-|
口⑤口口 |--⑤-|
18
口口口④ |--①-|
口口口③ |--②-|
口口口② |--③-|
口口口① |--④-|
19
口①⑧口 |①-②-|
③口②口 |③-④-|
口⑤口④ |⑤-⑥-|
⑦口⑥口 |⑦-⑧-|
20
①口口口 |①-②-|
口③口② |③-④-|
口口口④ |----|
口口口口 |----|
21
口①⑧口 |①-②-|
③口②口 |③-④-|
口⑤口④ |⑤-⑥-|
⑦口⑥口 |⑦-⑧-|
22
①口口口 |①-②-|
口③口② |③-④-|
口口口④ |----|
口口口口 |----|
23
口①⑧口 |①-②-|
③口②口 |③-④-|
口⑤口④ |⑤-⑥-|
⑦口⑥口 |⑦-⑧-|
24
①口口口 |①-②-|
口③口② |③-④-|
口口口④ |----|
口口口口 |----|
25
口①⑧口 |①-②-|
③口②口 |③-④-|
口⑤口④ |⑤-⑥-|
⑦口⑥口 |⑦-⑧-|
26
①口口口 |①-②-|
口③口② |③-④-|
口口口④ |----|
口口口口 |----|
27
口①⑧口 |①-②-|
③口②口 |③-④-|
口⑤口④ |⑤-⑥-|
⑦口⑥口 |⑦-⑧-|
28
①口口口 |①-②-|
口③口② |③-④-|
口口口④ |----|
口口口口 |----|
29
口口口口 |①---|
②口口口 |②---|
口口口口
口①①口

口口口口
口口③④
口口口口 |③-④-|
口⑤⑤口 |--⑤-|
30
口口口口 |----|
②口口口 |①---|
口③口口 |②---|
①口口口 |③---|
31
口①口口 |①---|
口口②③ |--②-|
口口口口 |③---|
口口口口 |----|
32
口口口口 |----|
口口口口 |----|
口口口口 |----|
口口口口 |----|
33
口口④口 |----|
①②③口 |①---|
口口口口 |②---|
口口口口 |③-④-|
34
①口口② |----|
③口口口 |①---|
口口口口 |②---|
口口口口 |③---|
35
口口口口 |①---|
口③口① |--②-|
口②口口 |③---|
口口口口 |----|
36
口口口口 |----|
口口口口 |----|
口口口口 |----|
口口口口 |----|
37
口口口④ |----|
口③口口 |①---|
口口②口 |②-③-|
①口口口 |--④-|
38
口①口口 |----|
口口②口 |①---|
口③口口 |②---|
口口口口 |③---|
39
口口口口 |①---|
口②口口 |--②-|
口口③口 |③---|
口口①口 |----|
40
口口口口 |----|
口口口口 |----|
口口口口 |----|
口口口口 |----|
41
口①①口 |----|
口②②口 |①---|
口③口口 |②---|
口口④口 |③-④-|
42
口口口口 |----|
③口口③ |①---|
①口口① |②---|
②口口② |③---|
43
口①①口 |①---|
口②口口 |--②-|
口口③口 |③---|
口口口口 |----|
44
口口口口 |----|
口口口口 |----|
口①①口 |----|
口口口口 |①---|
45
②口口③ |①---|
①口口① |--②-|
口口口口 |③---|
①口口① |----|
46
口口口口 |----|
口口口口 |----|
口①①口 |----|
口口口口 |①---|
47
②口口③ |①---|
①②③① |--②-|
口口口口 |③---|
①口口① |----|
48
口口口口 |----|
口口口口 |----|
①①①① |----|
口口口口 |①---|
49
③口口③ |①---|
①②②① |--②-|
口口口口 |③---|
①口口① |----|
50
口口口口 |----|
口口口口 |----|
①①①① |----|
口口口口 |①---|
51
③③③③ |①---|
①②②① |--②-|
口口口口 |③---|
①口口① |----|
52
口口口口 |----|
口口口口 |----|
口口口口 |----|
口口口口 |----|
53
口口口口 |----|
①②③口 |①-②-|
口口⑤④ |③---|
口口口口 |④-⑤-|
54
口口口⑥ |①-②-|
口口口口 |③-④-|
③①口口 |⑤---|
④②口⑤ |⑥---|
55
口口口口 |----|
①②③口 |①-②-|
口口⑤④ |③---|
口口口口 |④-⑤-|
56
口口口⑤ |①---|
②③④口 |②-③-|
口①口口 |④---|
口口口口 |⑤---|
57
口口口口 |----|
①②③口 |①-②-|
口口⑤④ |③---|
口口口口 |④-⑤-|
58
口口口⑥ |①-②-|
口口口口 |③-④-|
③①口口 |⑤---|
④②口⑤ |⑥---|
59
口口口口 |----|
①②③口 |①-②-|
口口⑤④ |③---|
口口口口 |④-⑤-|
60
口口口⑤ |①---|
②③④口 |②-③-|
口①口口 |④---|
口口口口 |⑤---|
61
口②口口 |①---|
口③口口 |②---|
口④口口 |③---|
口①①口 |④---|
62
口口①口 |----|
口口②口 |①---|
口口③口 |②---|
口口口口 |③---|
63
①②③口 |----|
口口口口 |①---|
口口口口 |②---|
口口口口 |③---|
64
口口口① |①---|
②③口④ |②---|
②口口④ |③---|
口口口口 |④---|
65
口①口口 |----|
口②口口 |①---|
口③口口 |②---|
口口口口 |③---|
66
口口①口 |----|
口口②口 |①---|
口口③口 |②---|
口口口口 |③---|
67
①②③口 |----|
口口口口 |①---|
口口口口 |②---|
口口口口 |③---|
68
口口口① |①---|
②③口④ |②---|
②口口④ |③---|
口口口口 |④---|
69
①口②口 |①-②-|
③口④口 |③-④-|
⑤口⑥口 |⑤-⑥-|
⑦口⑧口 |⑦-⑧-|
70
口①口② |①-②-|
口③口④ |③-④-|
口口口口 |----|
口口口口 |----|
71
①口②口 |①-②-|
③口④口 |③-④-|
⑤口⑥口 |⑤-⑥-|
⑦口⑧口 |⑦-⑧-|
72
口①口② |①-②-|
口③口④ |③-④-|
口口口口 |----|
口口口口 |----|
73
①口②口 |①-②-|
③口④口 |③-④-|
⑤口⑥口 |⑤-⑥-|
⑦口⑧口 |⑦-⑧-|
74
口①口② |①-②-|
口③口④ |③-④-|
口口口口 |----|
口口口口 |----|
75
①口②口 |①-②-|
③口④口 |③-④-|
⑤口⑥口 |⑤-⑥-|
⑦口⑧口 |⑦-⑧-|
76
口④口④ |--①-|
⑤②⑤② |②-③-|
⑤③⑤③ |④---|
口①口① |⑤---|

不確定度: 0

最終更新:2014年08月01日 02:12