GO
オワリカラ

BASIC

Level: 3
BPM: 152
Notes: 222

1
口口口口 |----|
口口口口 |----|
口口口口 |----|
口口口口 |----|
2
口口口口 |①---|
口①口口 |----|
口口口口 |----|
口口口口 |----|
3
口口口口 |①---|
口口口口 |----|
口口①口 |----|
口口口口 |----|
4
口口口口 |①---|
口口口口 |----|
口①口口 |----|
口口口口 |----|
5
口口口口 |①---|
口口①口 |----|
口口口口 |----|
口口口口 |----|
6
口口口口 |①---|
口口口口 |----|
口口口② |②---|
口①①口 |----|
7
口口口口 |①---|
②口口③ |----|
口①①口 |②---|
口口口口 |③---|
8
口口口② |①---|
口①①口 |----|
口口口口 |②---|
口口口口 |----|
9
②①①③ |①---|
口口口口 |----|
口口口口 |②---|
口口口口 |③---|
10
口口口口 |①---|
口口口口 |----|
口口口② |②---|
口①①口 |----|
11
口口口口 |①---|
②口口③ |----|
口①①口 |②---|
口口口口 |③---|
12
口口口② |①---|
口①①口 |----|
口口口口 |②---|
口口口口 |----|
13
②①①③ |①---|
口口口口 |----|
口口口口 |②---|
口口口口 |③---|
14
口①口口 |①---|
口口②口 |----|
口口口口 |②---|
口口口口 |----|
15
口口口口 |①---|
口①口口 |②---|
口口②口 |③---|
口③口口 |----|
16
口口①口 |①---|
口②口口 |----|
口口口口 |②---|
口口口口 |----|
17
口口口口 |①---|
口口①口 |②---|
口②口口 |③---|
口口③口 |----|
18
口口口口 |①---|
②①①② |----|
口口口口 |②---|
口口口口 |----|
19
口口口口 |①---|
②①①② |②---|
口③③口 |③---|
口口口口 |----|
20
口②口④ |①---|
①口③口 |②---|
口口口口 |③---|
口口口口 |④---|
21
口口②口 |①---|
口③口① |②---|
口口口口 |③---|
口口口口 |----|
22
口口口口 |①---|
口口口口 |----|
②①①② |②---|
口口口口 |----|
23
口口口口 |①---|
口口口口 |②---|
②①①② |③---|
口③③口 |----|
24
口口口口 |①---|
口口口口 |②---|
①口③口 |③---|
口②口④ |④---|
25
口口口口 |①---|
口口口口 |②---|
口③口① |③---|
口口②口 |----|
26
口口口口 |①---|
口口口口 |----|
口口口② |②---|
口①①口 |----|
27
口口口口 |①---|
②口口③ |----|
口①①口 |②---|
口口口口 |③---|
28
口口口② |①---|
口①①口 |----|
口口口口 |②---|
口口口口 |----|
29
②①①③ |①---|
口口口口 |----|
口口口口 |②---|
口口口口 |③---|
30
口口口口 |①---|
口口口口 |----|
口口口② |②---|
口①①口 |----|
31
口口口口 |①---|
②口口③ |----|
口①①口 |②---|
口口口口 |③---|
32
口口口② |①---|
口①①口 |----|
口口口口 |②---|
口口口口 |----|
33
①口口口 |①---|
口口口口 |----|
③②②③ |②---|
口口口口 |③---|
34
口口口口 |①---|
②①①② |----|
口口口口 |②---|
口口口口 |----|
35
口口口口 |①---|
②①①② |②---|
口③③口 |③---|
口口口口 |----|
36
口②口④ |①---|
①口③口 |②---|
口口口口 |③---|
口口口口 |④---|
37
口口②口 |①---|
口③口① |②---|
口口口口 |③---|
口口口口 |----|
38
口口口口 |①---|
口口口口 |----|
②①①② |②---|
口口口口 |----|
39
口口口口 |①---|
口口口口 |②---|
②①①② |③---|
口③③口 |----|
40
口口口口 |①---|
口口口口 |②---|
①口③口 |③---|
口②口④ |④---|
41
口口口口 |①---|
口口口口 |②---|
口③口① |③---|
口口②口 |----|
42
口口口口 |①---|
口口口口 |----|
口口口口 |②---|
②①①③ |③---|
43
口口口口 |①---|
口口口口 |----|
口口口口 |②---|
②①①③ |③---|
44
口口口口 |①---|
口口口口 |----|
②①①③ |②---|
口口口口 |③---|
45
口口口口 |①---|
口口口口 |----|
②①①③ |②---|
口口口口 |③---|
46
口口口口 |①---|
②①①③ |----|
口口口口 |②---|
口口口口 |③---|
47
口口口口 |①---|
②①①③ |----|
口口口口 |②---|
口口口口 |③---|
48
口①①口 |①---|
口口口口 |----|
口口口口 |----|
口口口口 |----|
49
口口口口 |----|
口口口口 |----|
口口口口 |----|
口口口口 |----|
50
口口口口 |①---|
口①①口 |----|
口①①口 |----|
口口口口 |----|
51
口口④口 |①---|
口③口口 |②---|
口①②口 |③---|
口口口口 |④---|
52
口①口口 |①---|
口口口口 |----|
口口口口 |----|
口口口口 |----|
53
口①②口 |①---|
口③口口 |②---|
口口④口 |③---|
口口口口 |④---|
54
口口口口 |①---|
口口口口 |----|
口①口口 |----|
口口口口 |----|
55
口口④口 |①---|
口③口口 |②---|
口①②口 |③---|
口口口口 |④---|
56
口①口口 |①---|
口口口口 |----|
口口口口 |----|
口口口口 |----|
57
口口口口 |----|
口口口口 |----|
口口口口 |----|
口口口口 |----|
58
口口口口 |①---|
②口口③ |----|
口①①口 |②---|
口口口口 |③---|
59
②口口③ |①---|
口①①口 |----|
口口口口 |②---|
口口口口 |③---|
60
口①①口 |①---|
口口口口 |----|
口口口口 |----|
口口口口 |----|
61
口口口口 |①---|
口③④口 |②---|
口口②口 |③---|
口①口口 |④---|
62
①口口① |①---|
口口口口 |----|
口口口口 |----|
口口口口 |----|
63
口口口口 |①---|
口口口口 |----|
口①①口 |②---|
口②②口 |----|
64
口口口口 |①---|
口①①口 |----|
口口口口 |----|
口口口口 |----|
65
口口口口 |----|
口口口口 |----|
口口口口 |----|
口口口口 |----|
66
口口口口 |①---|
口口口口 |----|
口口口② |②---|
口①①口 |----|
67
口口口口 |①---|
②口口③ |----|
口①①口 |②---|
口口口口 |③---|
68
口口口② |①---|
口①①口 |----|
口口口口 |②---|
口口口口 |----|
69
②①①③ |①---|
口口口口 |----|
口口口口 |②---|
口口口口 |③---|
70
口①①口 |①---|
口口口口 |----|
口口口口 |----|
口口口口 |----|

不確定度: 0

最終更新:2014年08月01日 00:13