GO
オワリカラ

ADVANCED

Level: 6
BPM: 152
Notes: 427

1
口口口口 |----|
口口口口 |----|
口口口口 |----|
口口口口 |----|
2
口口口口 |①---|
①②口口 |----|
口口口口 |②---|
口口口口 |----|
3
口口口口 |①---|
口口③口 |----|
口口②① |②---|
口口口口 |③---|
4
口口口口 |①---|
①②口口 |----|
口口口口 |②---|
口口口口 |----|
5
口口口口 |①---|
口口③口 |----|
口口②① |②---|
口口口口 |③---|
6
口口口口 |①---|
①①口口 |②---|
口④③② |③---|
口口口口 |④---|
7
口口口口 |①---|
口口①① |②---|
②③⑤口 |③-④-|
口口④⑥ |⑤-⑥-|
8
口口口口 |①---|
①①口口 |②---|
口④③② |③---|
口口口口 |④---|
9
口口口口 |①---|
口口①① |②---|
②③⑤口 |③-④-|
口口④⑥ |⑤-⑥-|
10
口口①① |①---|
②③④口 |②---|
口口口口 |③---|
口口口口 |④---|
11
口口口口 |①---|
口口口口 |②---|
口口口②
①①口口

口口口口
口口④口
口⑤③口 |③-④-|
⑥口口口 |⑤-⑥-|
12
口口①① |①---|
②③④口 |②---|
口口口口 |③---|
口口口口 |④---|
13
口口口口 |①---|
⑥口④口 |②---|
口⑤③② |③-④-|
①①口口 |⑤-⑥-|
14
⑤⑤口口 |①--②|
口⑥口口 |--③-|
④口口② |④--⑤|
③③①① |--⑥-|
15
口口口① |①-②-|
口口②口 |③-④-|
口③口口 |----|
④口⑤⑤ |⑤---|
16
①①③③ |①--②|
②口口④ |--③-|
口口⑥口 |④--⑤|
口口⑤⑤ |--⑥-|
17
⑤⑤口④ |①-②-|
口口③口 |③-④-|
口②口口 |----|
①口口口 |⑤---|
18
②②口口 |①---|
②②口口 |----|
口口①① |②---|
口口①① |----|
19
③③口口 |①---|
③②口口 |②---|
口口②① |③---|
口口①① |----|
20
⑥⑦口口 |①-②-|
⑧⑤口口 |③-④-|
口口②③ |⑤-⑥-|
口口④① |⑦-⑧-|
21
口口口口 |①-②-|
口⑤口口 |③-④-|
口口②③ |⑤---|
口口④① |----|
22
口口②② |①---|
口口②② |----|
①①口口 |②---|
①①口口 |----|
23
口口③③ |①---|
口口②③ |②---|
①②口口 |③---|
①①口口 |----|
24
口口⑦⑥ |①-②-|
口口⑤⑧ |③-④-|
③②口口 |⑤-⑥-|
①④口口 |⑦-⑧-|
25
口口口口 |①-②-|
口口⑤口 |③-④-|
③②口口 |⑤---|
①④口口 |----|
26
口口口口 |①---|
①①口口 |②---|
口④③② |③---|
口口口口 |④---|
27
口口口口 |①---|
口口①① |②---|
②③⑤口 |③-④-|
口口④⑥ |⑤-⑥-|
28
口口口口 |①---|
①①口口 |②---|
口④③② |③---|
口口口口 |④---|
29
口口口口 |①---|
口口①① |②---|
②③⑤口 |③-④-|
口口④⑥ |⑤-⑥-|
30
口口①① |①---|
②③④口 |②---|
口口口口 |③---|
口口口口 |④---|
31
口口口口 |①---|
口口口口 |②---|
口口口②
①①口口

口口口口
口口④口
口⑤③口 |③-④-|
⑥口口口 |⑤-⑥-|
32
口口①① |①---|
②③④口 |②---|
口口口口 |③---|
⑤⑤口口 |④-⑤-|
33
口口口口 |--①-|
⑤③口口 |②-③-|
口④②① |④---|
口口口口 |⑤---|
34
口口①① |①---|
口口①① |----|
②②口口 |②---|
②②口口 |----|
35
口口①① |①---|
口口②① |②---|
③②口口 |③---|
③③口口 |----|
36
口口④① |①-②-|
口口②③ |③-④-|
⑧⑤口口 |⑤-⑥-|
⑥⑦口口 |⑦-⑧-|
37
口口④① |①-②-|
口口②③ |③-④-|
口⑤口口 |⑤---|
口口口口 |----|
38
①①口口 |①---|
①①口口 |----|
口口②② |②---|
口口②② |----|
39
①①口口 |①---|
①②口口 |②---|
口口②③ |③---|
口口③③ |----|
40
①④口口 |①-②-|
③②口口 |③-④-|
口口⑤⑧ |⑤-⑥-|
口口⑦⑥ |⑦-⑧-|
41
①②③口 |①---|
②③口口 |②---|
③口口口 |③---|
口口口④ |④---|
42
口口口口 |①-②-|
④⑤③⑥ |③-④-|
⑥②⑤① |⑤---|
口口口口 |⑥---|
43
④⑧③口 |①-②-|
口⑤口口 |③-④-|
口口⑤⑥ |⑤-⑥-|
口②⑦① |⑦-⑧-|
44
口口口口 |①-②-|
①⑤②⑥ |③-④-|
⑥③⑤④ |⑤---|
口口口口 |⑥---|
45
①⑦②口 |①-②-|
⑥⑤口口 |③-④-|
口口⑤口 |⑤-⑥-|
口③⑧④ |⑦-⑧-|
46
口口口口 |①-②-|
④⑤③⑥ |③-④-|
⑥②⑤① |⑤---|
口口口口 |⑥---|
47
④⑧③口 |①-②-|
口⑤口口 |③-④-|
口口⑤⑥ |⑤-⑥-|
口②⑦① |⑦-⑧-|
48
口⑧口口 |①-②-|
①口②⑥ |③-④-|
口③口④ |⑤-⑥-|
⑦口⑤口 |⑦-⑧-|
49
①口①① |①---|
口口口口 |----|
口口口口 |----|
口口口口 |----|
50
口口口口 |①---|
①①①① |----|
②口口口 |----|
口口口口 |--②-|
51
⑥⑥⑥⑥ |①-②-|
⑤⑤⑤⑤ |③-④-|
口②④口 |--⑤-|
口口③① |--⑥-|
52
①口口口 |----|
口口口口 |----|
口口口口 |----|
口口口口 |--①-|
53
口口口口 |①-②-|
②口口口 |③-④-|
④口口③
口口口①

⑥⑥⑥⑥
口口口⑤
口口口口 |⑤---|
⑦⑦⑦⑦ |⑥-⑦-|
54
口口口口 |----|
口口口口 |----|
口口口口 |----|
口口口口 |----|
55
口①口口 |①-②-|
⑥③⑤⑥ |③-④-|
⑦⑤④⑦ |⑤---|
口口②口 |⑥-⑦-|
56
口口口口 |----|
口口口口 |----|
口口口口 |----|
口口口口 |----|
57
②①①② |----|
口口口口 |----|
口口口口 |①---|
口口口口 |②---|
58
④⑤④口 |①---|
②口②口 |②-③-|
⑥③⑥口 |--④-|
口①口口 |⑤-⑥-|
59
口口口口 |--①-|
④①④口 |②-③-|
口⑤口口 |--④-|
②③②口 |⑤---|
60
①口①口 |①---|
口口口口 |----|
口口口口 |----|
口口口口 |----|
61
⑦口口⑦ |①-②-|
⑥口口⑥ |③-④-|
口①④口 |⑤-⑥-|
⑤③②⑤ |--⑦-|
62
口口口口 |----|
口口口口 |----|
口口口口 |----|
口口口口 |----|
63
口口⑥⑥ |①---|
③③口口 |②-③-|
口②⑤口 |④---|
口④①口 |⑤-⑥-|
64
口口口口 |----|
口口口口 |----|
口口口口 |----|
口口口口 |----|
65
②①①② |----|
口口口口 |----|
口口口口 |①---|
口口口口 |②---|
66
口口口口 |①---|
①①口口 |②---|
口④③② |③---|
口口口口 |④---|
67
口口口口 |①---|
口口①① |②---|
②③⑤口 |③-④-|
口口④⑥ |⑤-⑥-|
68
口口口口 |①---|
①①口口 |②---|
口④③② |③---|
口口口口 |④---|
69
口口口口 |①---|
口口①① |②---|
②③⑤口 |③-④-|
口口④⑥ |⑤-⑥-|
70
口口口口 |①---|
①口口① |----|
口口口口 |----|
口口口口 |----|

不確定度: 0

最終更新:2014年08月01日 00:12