Timberwolves
S-C-U

EXTREME

Level: 10
BPM: 190
Notes: 731

1
口口口口 |----|
口口口口 |----|
口口口口 |----|
口口口口 |----|
2
①口口② |①---|
口口口口 |----|
①口②口 |----|
口口口口 |--②-|
3
②口①口 |--①-|
口口口口 |----|
②口口① |----|
口口口口 |--②-|
4
口口②① |----|
口口口口 |----|
口口①② |--①-|
口口口口 |--②-|
5
口口口口 |----|
口口口口 |----|
口口口口 |----|
口口口口 |----|
6
①口口⑦ |①---|
口⑥⑤口 |②-③-|
①口⑦口 |④-⑤-|
②③④口 |⑥-⑦-|
7
⑥口①口 |--①-|
口⑤③② |--②-|
⑥④口① |③-④-|
口口口口 |⑤-⑥-|
8
口口⑥⑤ |--①-|
①口口④ |②-③-|
口口⑤⑥ |④-⑤-|
口②口③ |--⑥-|
9
口⑦⑧⑥ |--①②|
①②③口 |③-④-|
口⑤⑤口 |⑤-⑥-|
口④口口 |⑦-⑧-|
10
①口口⑨ |①---|
口⑦④⑧ |②-③-|
①口⑨口 |④⑤⑥⑦|
③⑤⑥② |⑧-⑨-|
11
⑨④①口 |--①-|
口口⑤口 |②-③-|
⑨⑥口① |④⑤⑥⑦|
②⑧⑦③ |⑧-⑨-|
12
口口⑧⑦ |--①-|
⑤①⑥④ |②③④⑤|
口口⑦⑧ |⑥-⑦-|
③口口② |--⑧-|
13
口口口口 |--①②|
⑥⑤⑤口 |③-④-|
口⑧口⑦ |⑤-⑥-|
③②①④ |⑦-⑧-|
14
①③②⑧ |①---|
④⑥⑤⑦ |②-③-|
①口⑧口 |④⑤⑥⑦|
④⑥⑤⑦ |--⑧-|
15
⑧③①口 |--①-|
⑦⑤④⑥ |②-③-|
⑧②口① |④⑤⑥⑦|
⑦⑤④⑥ |--⑧-|
16
⑧口①⑧ |--①-|
口⑤④口 |②③④⑤|
口③②⑥ |⑥-⑦-|
⑦口口⑦ |--⑧-|
17
口⑦⑧口 |----|
⑤口口⑥ |①②③④|
③⑪⑫④ |⑤⑥⑦⑧|
⑨①②⑩ |⑨⑩⑪⑫|
18
①口口⑦ |①-②-|
口②口口 |③-④-|
口⑥口④ |--⑤-|
口⑤③口 |⑥-⑦-|
19
⑦口①口 |--①-|
口②口⑦ |--②③|
⑤⑥③口 |④-⑤-|
口口口④ |⑥-⑦-|
20
口口⑤④ |--①-|
口口①口 |②-③-|
口口口口 |--④-|
③口②口 |--⑤-|
21
口口口口 |--①②|
口口⑨⑧ |③-④-|
口③②① |⑤-⑥-|
⑥⑦⑤④ |⑦-⑧⑨|
22
①③②⑦ |①-②-|
①⑥口口 |③-④-|
口口口④ |--⑤-|
口口⑤口 |⑥-⑦-|
23
④④①口 |--①-|
口口③口 |----|
口口口口 |--②-|
口②口口 |③-④-|
24
口口①口 |--①-|
④②口④ |②-③-|
口口③口 |--④-|
⑤口口⑤ |--⑤-|
25
口口②① |----|
口口④③ |--①-|
口口①② |--②-|
口口口口 |--③④|
26
①口口⑦ |①-②-|
口④口口 |③-④-|
①⑥⑦口 |--⑤-|
③口⑤② |⑥-⑦-|
27
⑦口①口 |--①-|
②③④口 |--②③|
⑦⑥口① |④-⑤-|
⑤口口口 |⑥-⑦-|
28
口口⑤④ |--①-|
②口口① |②-③-|
口口④⑤ |--④-|
口口③口 |--⑤-|
29
口口口口 |--①②|
①②③口 |③-④-|
口⑤⑨⑧ |⑤-⑥-|
⑦④口⑥ |⑦-⑧⑨|
30
①口⑦口 |①-②-|
口④③② |③-④-|
①口口⑦ |--⑤-|
⑥口口⑤ |⑥-⑦-|
31
⑥口口① |--①-|
口⑤口口 |②-③-|
⑥口①口 |--④-|
口②③④ |⑤-⑥-|
32
口④⑤⑤ |--①-|
④口①口 |②-③-|
口口口④ |--④-|
⑤②③口 |--⑤-|
33
口口口⑩ |----|
口口⑨⑥ |--①②|
口⑧⑤③ |③④⑤⑥|
⑦④②① |⑦⑧⑨⑩|
34
①①口口 |①---|
①口口口 |----|
口口口口 |----|
口口口口 |----|
35
口口③口 |①---|
口②口③ |--②-|
①口②口 |----|
口①口口 |③---|
36
口①口口 |①---|
①③②口 |②-③-|
口④⑤口 |--④-|
口口口口 |⑤---|
37
口③②① |①---|
口口口口 |--②-|
④⑤口口 |----|
口口口口 |③-④⑤|
38
口口口口 |①---|
口口口口 |----|
口口①口 |----|
口口口口 |----|
39
①口口口 |①---|
口②口口 |②---|
口口③口 |③---|
④口口口 |④---|
40
⑧口⑥⑦ |①-②-|
④⑤口口 |③-④-|
口③口口 |⑤-⑥-|
口口②① |⑦-⑧-|
41
口①口口 |①-②-|
口口③② |③-④-|
口④口口 |----|
⑤⑥口口 |--⑤⑥|
42
⑥口④⑤ |①-②-|
②③口口 |③-④-|
⑥口口口 |⑤---|
口口①口 |⑥---|
43
⑥口④④ |①-②-|
口③⑥口 |③-④-|
⑥口口⑤ |⑤---|
口口②① |⑥---|
44
⑦口③③ |①-②-|
口口⑦口 |③-④-|
⑦⑤④④ |⑤-⑥-|
①②⑥口 |⑦---|
45
⑥口口口 |①-②-|
口⑤⑦⑧ |③-④-|
⑥口④③ |⑤---|
①②口口 |⑥-⑦⑧|
46
口口口① |①-②-|
口口⑧口 |③-④-|
⑥⑦④⑤ |⑤-⑥-|
②③口口 |⑦-⑧-|
47
①①口口 |①-②-|
口⑧口口 |③-④-|
口口⑦⑥ |⑤-⑥-|
⑤④③② |⑦-⑧-|
48
①①①① |①-②-|
③⑫⑪② |③-④-|
⑩④口⑨ |⑤⑥⑦⑧|
⑧⑥⑤⑦ |⑨⑩⑪⑫|
49
口口①口 |①---|
口口口① |----|
口口口口
口口口口

口口③②
口口口口
口口口口 |----|
口口口口 |--②③|
50
①③口口 |①-②-|
口⑨⑥⑩ |③-④-|
⑪⑦⑧口 |⑤-⑥⑦|
②④⑤口 |⑧⑨⑩⑪|
51
口⑤③① |①-②-|
口⑧⑦⑪ |③-④-|
⑩⑥⑨口 |⑤-⑥⑦|
口口④② |⑧⑨⑩⑪|
52
①口⑤③ |①-②③|
⑥口口口 |④⑤⑥⑦|
口口口⑦
②④口口

⑭口口口
口⑩⑨⑬
⑫⑧⑪口 |⑧⑨⑩⑪|
口口口⑮ |⑫⑬⑭⑮|
53
口①③② |①-②③|
④⑤⑥口 |--④-|
口口⑦⑧ |⑤-⑥-|
口口口口 |⑦-⑧-|
54
⑥口⑫⑪ |①②③④|
⑩⑨⑧⑦ |⑤-⑥-|
④⑤口口 |--⑦⑧|
①②③口 |⑨⑩⑪⑫|
55
口①口口 |①-②③|
口口口口 |④-⑤⑥|
口口⑥⑤
②③④口

⑬⑭口口
⑫⑪⑩⑨
⑧⑦口口 |⑦⑧⑨⑩|
口口口口 |⑪⑫⑬⑭|
56
口口①③ |①-②-|
口⑥⑨⑤ |③-④-|
口⑧⑦④ |⑤-⑥⑦|
⑩口②口 |⑧⑨⑩-|
57
①口②口 |①--②|
口口口口 |--③-|
③口口③
口②口①

⑦⑧口口
④⑤⑥④
口⑤⑥口 |④-⑤-|
口口口口 |⑥-⑦⑧|
58
口口③① |①-②-|
⑩⑥⑨口 |③-④-|
口⑧⑦⑪ |⑤-⑥⑦|
口⑤④② |⑧⑨⑩⑪|
59
①③⑤口 |①-②-|
⑪⑦⑧口 |③-④-|
口⑨⑥⑩ |⑤-⑥⑦|
②④口口 |⑧⑨⑩⑪|
60
③⑤口① |①-②③|
口口口⑥ |④⑤⑥⑦|
⑦口口口
口口④②

口口口⑭
⑬⑨⑩口
口⑪⑧⑫ |⑧⑨⑩⑪|
⑮口口口 |⑫⑬⑭⑮|
61
②③①口 |①-②③|
⑦⑥⑤④ |--④-|
口⑦⑧口 |⑤-⑥-|
口⑥⑤⑧ |⑦-⑧-|
62
①②③④ |①②③④|
口口口口 |⑤-⑥-|
⑤口口⑥
口口口口

⑪⑫口口
⑦⑧⑨⑩
口口口口 |--⑦⑧|
口口口口 |⑨⑩⑪⑫|
63
口口①口 |①-②③|
口口口口 |④-⑤⑥|
⑤⑥口口
口④③②

口口⑭⑬
⑨⑩⑪⑫
口口⑦⑧ |⑦⑧⑨⑩|
口口口口 |⑪⑫⑬⑭|
64
③①口口 |①-②-|
⑤⑨⑥⑩ |③-④-|
⑤⑦⑧口 |⑤-⑥⑦|
④②口口 |⑧⑨⑩-|
65
口①①口 |①-②③|
口⑨⑧口 |④-⑤-|
⑥⑦⑧⑤ |⑥-⑦-|
⑥④③② |⑧-⑨-|
66
口①①口 |①---|
①口口① |②-③-|
口⑦⑤③ |④-⑤-|
口⑥④② |⑥-⑦-|
67
口口口口 |①-②-|
口口口口 |③-④-|
②口⑥④ |⑤-⑥-|
①⑦⑤③ |⑦---|
68
①口口③ |①--②|
口②②口 |--③-|
口④④口 |-④--|
①⑤⑤③ |⑤---|
69
口⑤⑥口 |--①②|
③⑦⑧④ |③④⑤⑥|
①⑨⑩② |⑦⑧⑨⑩|
⑬⑪⑫⑭ |⑪⑫⑬⑭|
70
①③⑨② |①---|
⑦⑥⑤④ |②-③-|
①口口⑨ |④⑤⑥⑦|
口口⑧口 |⑧-⑨-|
71
⑨口⑧① |--①-|
口⑤④口 |②-③-|
⑨口①口 |④⑤⑥⑦|
②⑦⑥③ |⑧-⑨-|
72
口口⑧⑦ |--①-|
⑤口⑥② |②③④⑤|
口①⑦⑧ |⑥-⑦-|
③口口④ |--⑧-|
73
口口⑧⑦ |--①②|
⑥⑤⑤口 |③-④-|
口⑥⑦口 |⑤-⑥-|
③②①④ |⑦-⑧-|
74
①③口⑧ |①---|
⑥④⑦⑤ |②-③-|
①口⑧② |④⑤⑥⑦|
⑥④⑦⑤ |--⑧-|
75
⑧③①口 |--①-|
⑦⑤⑥④ |②-③-|
⑧②口① |④⑤⑥⑦|
⑦⑤⑥④ |--⑧-|
76
⑧口①⑧ |--①-|
口⑤口④ |②③④⑤|
口③⑥② |⑥-⑦-|
⑦口口⑦ |--⑧-|
77
口⑦⑧口 |----|
⑤口口⑥ |①②③④|
③⑪⑫④ |⑤⑥⑦⑧|
⑨①②⑩ |⑨⑩⑪⑫|
78
①⑦⑧② |①-②-|
④口⑥⑤ |③-④-|
④⑦口口 |⑤-⑥-|
⑦④③口 |⑦-⑧-|
79
②⑦口③ |①-②-|
⑤②⑧⑥ |③-④-|
⑤⑨②① |⑤-⑥⑦|
口⑤④⑩ |⑧⑨⑩-|
80
①口口口 |----|
口①口口 |①---|
口口①① |----|
口口①口 |----|

不確定度: 0

最終更新:2014年12月11日 23:08