Let's ダバダバ

BASIC

Level: 4
BPM: 169
Notes: 234

1
口口口口 |----|
口①①口 |----|
口口口口 |①---|
口口口口 |----|
2
口①口口 |①---|
②口口口 |----|
口口口口 |②---|
口口口口 |----|
3
口口口口 |①---|
口口口口 |----|
①口口口 |②---|
口②口口 |----|
4
口口口口 |①---|
口口口口 |----|
口口口② |②---|
口口①口 |----|
5
口②②口 |①---|
口口口① |----|
口口口口 |②---|
口口口口 |----|
6
①口口口 |①---|
口②口口 |②---|
③口口口 |③---|
口④口口 |④---|
7
④口口④ |①---|
口口③口 |②---|
口口口② |③---|
口口①口 |④---|
8
口①口口 |①---|
口②③口 |②---|
口口④口 |③---|
口口口口 |④---|
9
口口口口 |①---|
口口口口 |②---|
④①口④ |③---|
口②③口 |④---|
10
口口口口 |①---|
口①口口 |----|
口口②口 |②---|
口口口口 |----|
11
口口口① |①---|
口口口口 |----|
口口口口 |②---|
②③口口 |③---|
12
口口口口 |①---|
口口①口 |----|
口②口口 |②---|
口口口口 |----|
13
①②口口 |①---|
口口口口 |②---|
口口口口 |③---|
口口④③ |④---|
14
口口口口 |①---|
口①口口 |----|
口口②口 |②---|
口口口口 |----|
15
口口口① |①---|
口口口口 |----|
口口口口 |②---|
②③口口 |③---|
16
口口口口 |①---|
口口①口 |----|
口②口口 |②---|
口口口口 |----|
17
①②口口 |①---|
口口口口 |②---|
口口口口 |③---|
口口④③ |④---|
18
③口口口 |①---|
②口口口 |----|
口口口口 |②---|
①口口口 |③---|
19
口口口① |①---|
口口口口 |----|
口口口② |②---|
口口口③ |③---|
20
①口口口 |①---|
口口口口 |----|
②口口口 |②---|
③口口口 |③---|
21
口口口③ |①---|
口口口② |----|
口口口口 |②---|
口口口① |③---|
22
口口口口 |①---|
口口口口 |----|
口①②口 |②---|
口口口口 |----|
23
口口口口 |①---|
口①①口 |----|
口口口口 |----|
口口口口 |----|
24
口口口口 |①---|
口②①口 |----|
口口口口 |②---|
口口口口 |----|
25
口口口口 |①---|
口口口口 |----|
口②②口 |②---|
口①①口 |----|
26
③口口口 |①---|
②口口口 |----|
口口口口 |②---|
①口口口 |③---|
27
口口口① |①---|
口口口口 |----|
口口口② |②---|
口口口③ |③---|
28
①口口口 |①---|
口口口口 |----|
②口口口 |②---|
③口口口 |③---|
29
口口口③ |①---|
口口口② |----|
口口口口 |②---|
口口口① |③---|
30
口口口口 |①---|
口口口口 |----|
口②①口 |②---|
口口口口 |----|
31
口口口口 |①---|
口①①口 |----|
口口口口 |----|
口口口口 |----|
32
口口口口 |①---|
口②①口 |----|
口口口口 |②---|
口口口口 |----|
33
口口口口 |①---|
口口口口 |----|
口②②口 |②---|
口①①口 |----|
34
①口口口 |①---|
口②口口 |②---|
③口口口 |③---|
口④口口 |④---|
35
④口口④ |①---|
口口③口 |②---|
口口口② |③---|
口口①口 |④---|
36
口①口口 |①---|
口②③口 |②---|
口口④口 |③---|
口口口口 |④---|
37
口口口口 |①---|
口口口口 |②---|
④①口④ |③---|
口②③口 |④---|
38
①②③④ |①---|
口口口口 |②---|
口口口口 |③---|
口口口口 |④---|
39
口口口口 |①---|
口口②① |②---|
口口口口
口口口口

口口口口
④③口④
口口口口 |③---|
口口口口 |④---|
40
口①口口 |①---|
口②③口 |②---|
口口④口 |③---|
口口口口 |④---|
41
口口口口 |①---|
口口口口 |②---|
④①口④ |③---|
口②③口 |④---|
42
口口口口 |①---|
口①口口 |----|
口口②口 |②---|
口口口口 |----|
43
口口口① |①---|
口口口口 |----|
口口口口 |②---|
②③口口 |③---|
44
口口口口 |①---|
口口①口 |----|
口②口口 |②---|
口口口口 |----|
45
①②口口 |①---|
口口口口 |②---|
口口口口 |③---|
口口④③ |④---|
46
口口口口 |①---|
口①口口 |----|
口口②口 |②---|
口口口口 |----|
47
口口口① |①---|
口口口口 |----|
口口口口 |②---|
②③口口 |③---|
48
口口口口 |①---|
口口①口 |----|
口②口口 |②---|
口口口口 |----|
49
口口口口 |①---|
口①①口 |----|
口口口口 |----|
口口口口 |----|
50
③口口口 |①---|
②口口口 |----|
口口口口 |②---|
①口口口 |③---|
51
口口口① |①---|
口口口口 |----|
口口口② |②---|
口口口③ |③---|
52
①口口口 |①---|
口口口口 |----|
②口口口 |②---|
③口口口 |③---|
53
口口口③ |①---|
口口口② |----|
口口口口 |②---|
口口口① |③---|
54
口口口口 |①---|
口口口口 |----|
口①②口 |②---|
口口口口 |----|
55
口口口口 |①---|
口①①口 |----|
口口口口 |----|
口口口口 |----|
56
口口口口 |①---|
口②①口 |----|
口口口口 |②---|
口口口口 |----|
57
口口口口 |①---|
口口口口 |----|
口②②口 |②---|
口①①口 |----|
58
③口口口 |①---|
②口口口 |----|
口口口口 |②---|
①口口口 |③---|
59
口口口① |①---|
口口口口 |----|
口口口② |②---|
口口口③ |③---|
60
①口口口 |①---|
口口口口 |----|
②口口口 |②---|
③口口口 |③---|
61
口口口③ |①---|
口口口② |----|
口口口口 |②---|
口口口① |③---|
62
口口口口 |①---|
口口口口 |----|
口②①口 |②---|
口口口口 |----|
63
口口口口 |①---|
口①①口 |----|
口口口口 |----|
口口口口 |----|
64
口口口口 |①---|
口②①口 |----|
口口口口 |②---|
口口口口 |----|
65
口口口口 |①---|
口口口口 |----|
口②②口 |②---|
口①①口 |----|
66
①口口口 |①---|
口②口口 |②---|
③口口口 |③---|
口④口口 |④---|
67
④口口④ |①---|
口口③口 |②---|
口口口② |③---|
口口①口 |④---|
68
口①口口 |①---|
口②③口 |②---|
口口④口 |③---|
口口口口 |④---|
69
口口口口 |①---|
口口口口 |②---|
④①口④ |③---|
口②③口 |④---|
70
①②③④ |①---|
口口口口 |②---|
口口口口 |③---|
口口口口 |④---|
71
口口口口 |①---|
口口②① |②---|
口口口口
口口口口

口口口口
④③口④
口口口口 |③---|
口口口口 |④---|
72
口①口口 |①---|
口②③口 |②---|
口口④口 |③---|
口口口口 |④---|
73
口口口口 |①---|
口口口口 |②---|
④①口④ |③---|
口②③口 |④---|
74
口②②口 |①---|
口①口口 |----|
口口口口 |②---|
口口口口 |----|


不确定度: 0

最終更新:2012年11月08日 18:23