Daydream cafe
Petit Rabbit's

EXTREME

Level: 8
BPM: 150
Notes: 515

1
口口口口 |----|
口③口口 |----|
口口口② |--①-|
①口口口 |②-③-|
2
①②①② |①---|
③⑤⑤口 |②---|
口⑤⑤④ |③-④-|
口①②口 |--⑤-|
3
①口⑥口 |--①-|
口⑦口② |②-③-|
⑤口口口 |④-⑤-|
③口口④ |⑥-⑦-|
4
④口口④ |①---|
②口口① |②---|
口③③口 |③---|
口②①口 |--④-|
5
口口口口 |--①-|
口①口口 |②-③-|
口⑤口② |④-⑤-|
③口④口 |----|
6
②口①口 |①---|
⑤④③⑤ |②---|
口③④口 |③-④-|
口①口② |--⑤-|
7
③③口口 |--①-|
④口口口 |②-③-|
口口口② |----|
①口⑤口 |④-⑤-|
8
⑦口口⑦ |①-②-|
口①④⑥ |③-④-|
口⑧⑧口 |⑤-⑥-|
③⑤口② |⑦-⑧-|
9
⑥口③口 |--①-|
口④口口 |②-③-|
①口⑦② |④-⑤-|
①口⑤② |⑥-⑦-|
10
⑧①口口 |①-②-|
③⑥口口 |③-④-|
⑦②口口 |⑤-⑥-|
④⑤口口 |⑦-⑧-|
11
口①④④ |①-②-|
口口②⑥ |③-④-|
口③⑥口 |--⑤-|
口口⑤⑤ |--⑥-|
12
口口口① |--①-|
口口②⑦ |②-③-|
口口⑥③ |④-⑤-|
口口④⑤ |⑥-⑦-|
13
口口口口 |①---|
③口①口 |②-③-|
口①口③
口②②口

④口口④
口口口口
⑤⑤口口 |--④-|
口口口口 |--⑤-|
14
⑥①口口 |--①-|
③④口口 |②-③-|
⑦口口口 |④-⑤-|
②⑤口口 |⑥-⑦-|
15
口口④④ |①-②-|
口⑥⑥口 |③-④-|
口①⑤⑤ |--⑤-|
③口②口 |--⑥-|
16
③口口口 |--①-|
口口口口 |②-③-|
口①口口
口口②口

口口口口
口口口④
⑤⑦口⑥ |④-⑤-|
口口口口 |⑥-⑦-|
17
②①②① |①---|
③口口口 |--②-|
口④⑤口 |--③-|
口②①口 |④-⑤-|
18
⑦⑦口① |①-②-|
口②⑤口 |③-④-|
口⑥口③ |⑤-⑥-|
④口口口 |--⑦-|
19
口口④① |--①-|
口口②口 |②-③-|
口⑤口③ |④-⑤-|
⑦口⑥口 |⑥-⑦-|
20
口⑤②③ |①---|
口口①② |②---|
口口口口 |③-④-|
④口⑤口 |--⑤-|
21
④口①口 |--①-|
⑤②③口 |--②-|
⑥③②口 |③-④-|
口①口口 |⑤-⑥-|
22
⑦⑦口① |①-②-|
口②⑤口 |③-④-|
口⑥③口 |⑤-⑥-|
④口口口 |--⑦-|
23
口⑦④口 |--①-|
口口口口 |②-③-|
②⑤⑥③ |④-⑤-|
口口①口 |⑥-⑦-|
24
口口口口 |①---|
口⑥③① |②-③-|
口口⑥口 |④---|
⑤④②① |⑤-⑥-|
25
②口口③ |--①-|
⑨口①⑧ |--②-|
⑦①口⑥ |③-④⑤|
③⑤④② |⑥⑦⑧⑨|
26
口⑤①口 |①-②-|
口②⑥口 |③-④-|
口⑦③口 |⑤-⑥-|
④口口⑧ |⑦-⑧-|
27
①口口⑤ |①-②-|
②口口⑥ |③-④-|
③口口⑦ |⑤-⑥-|
④口口口 |⑦---|
28
①①③③ |--①-|
口口⑤口 |②---|
口⑤口口 |③-④-|
②②④④ |--⑤-|
29
③⑤⑦② |--①-|
⑥①口④ |②-③-|
④口①口 |④-⑤-|
②口口③ |⑥-⑦-|
30
⑥⑥口② |①-②-|
口⑦③口 |③-④-|
口口①④ |⑤---|
⑤⑤⑤口 |⑥-⑦-|
31
⑦口口⑤ |①-②-|
③⑧口⑥ |③-④-|
①②口⑦ |⑤-⑥-|
④⑤口口 |⑦-⑧-|
32
⑩②③⑦ |①-②③|
⑥口口口 |④⑤⑥-|
⑧口①⑨ |⑦-⑧-|
口④⑤口 |⑨-⑩-|
33
⑧④口⑦ |--①②|
④⑧⑦口 |③-④-|
⑥⑥⑤⑤ |⑤-⑥-|
①②③⑧ |⑦-⑧-|
34
口口②④ |--①-|
口口④① |②-③-|
口口口③ |--④-|
⑤口③口 |--⑤-|
35
口②口口 |--①-|
①口口口 |②-③-|
③口口口
口③口口

④口口口
⑤④口⑤
口口口口 |--④-|
口口口口 |--⑤-|
36
口②②口 |--①-|
口口口口 |②-③-|
③口口③
①③③①

④口口④
⑤④④⑤
口口口口 |--④-|
⑤口口⑤ |--⑤-|
37
口口口口 |--①-|
⑥③③⑤ |②-③-|
③①②③ |--④-|
④①②口 |⑤-⑥-|
38
①②①② |①---|
口口口口 |②---|
口口口口
口①②口

⑤口⑤口
口③④口
口③④口 |③-④-|
口口口口 |--⑤-|
39
口口⑦口 |--①-|
口⑥口① |②-③-|
②口⑤口 |④-⑤-|
④口口③ |⑥-⑦-|
40
口口口口 |①---|
①③③② |②---|
①④④② |③---|
口③③口 |--④-|
41
①⑦⑥⑤ |--①-|
口口口② |②-③-|
③口口口 |④-⑤-|
口口口④ |⑥-⑦-|
42
口口口口 |①---|
①②①② |②---|
②①②①
口口口口

口⑤③③
口口⑤口
口⑤口口 |③-④-|
④④⑤口 |--⑤-|
43
口④③③ |--①-|
②②⑤口 |②-③-|
口口①① |----|
口口口口 |④-⑤-|
44
口口口口 |①-②-|
口口口② |③-④-|
③①口口
口口口④

口⑦⑧口
⑦⑤口⑧
口口⑥口 |⑤-⑥-|
口口口口 |⑦-⑧-|
45
口口口③ |--①-|
⑥口②⑤ |②-③-|
口①口口 |--④-|
④口口口 |⑤-⑥-|
46
①②①② |①---|
口口口口 |②---|
口口口口
口①②口

⑤口⑤口
口③④口
口③④口 |③-④-|
口口口口 |--⑤-|
47
口口⑦口 |--①-|
口⑥口① |②-③-|
②口⑤口 |④-⑤-|
④口口③ |⑥-⑦-|
48
口口口口 |①---|
①③③② |②---|
①④④② |③---|
口③③口 |--④-|
49
①⑦⑥⑤ |--①-|
口口口② |②-③-|
③口口口 |④-⑤-|
口口口④ |⑥-⑦-|
50
口口口口 |①---|
①②①② |②---|
②①②①
口口口口

口⑤③③
口口⑤口
口⑤口口 |③-④-|
④④⑤口 |--⑤-|
51
口④③③ |--①-|
②②⑤口 |②-③-|
口口①① |----|
口口口口 |④-⑤-|
52
①口口口 |①-②-|
口口口② |③-④-|
口口口④
③口口口

口⑦⑧口
⑦⑤口⑧
口口⑥口 |⑤-⑥-|
口口口口 |⑦-⑧-|
53
⑥口口⑤ |--①②|
口⑧⑧口 |③-④-|
口④⑦口 |⑤-⑥-|
①②③口 |⑦-⑧-|
54
⑥⑥⑤⑤ |--①-|
①口口② |②-③-|
①⑦⑦② |④-⑤-|
③③④④ |⑥-⑦-|
55
口③③口 |①---|
①②②① |--②-|
口③③口 |----|
②口口② |③---|
56
③口口③ |--①-|
①①②② |②-③-|
③口口③ |----|
②②①① |----|

不確定度: 0

最終更新:2014年12月12日 01:05