KHAMEN BREAK
くふおー

EXTREME

Level: 10
BPM: 180
Notes: 1042

1
口口口口 |----|
口口口口 |----|
口口口口 |----|
口口口口 |----|
2
口口口口 |----|
口口口口 |----|
口口口口 |----|
口口口口 |----|
3
口③口口 |----|
口③口口 |①---|
口①②② |②---|
①①口② |--③-|
4
①口口② |①---|
①口④口 |②-③-|
口口口⑥ |--④-|
③③⑤口 |⑤-⑥-|
5
口口口② |①---|
口口④口 |②-③-|
①①口⑥ |--④-|
③③⑤口 |⑤-⑥-|
6
口口口② |①---|
①①④口 |②-③-|
口口口⑥ |--④-|
③③⑤口 |⑤-⑥-|
7
口口口② |①---|
口口④口 |②-③-|
①①口⑥ |--④-|
③③⑤口 |⑤-⑥-|
8
口①②口 |①---|
①口口口 |--②-|
口口②口
口口口口

③④口口
口③口口
口④口口 |③---|
口口口口 |--④-|
9
④口③① |①--②|
③④①⑤ |--③-|
口⑥⑤② |--④-|
⑥②口口 |⑤-⑥-|
10
口③口口 |①---|
口口④口 |②-③-|
⑤口⑥口 |④---|
口②①① |⑤-⑥-|
11
①⑨⑩② |①②③④|
口③口④ |⑤⑥⑦⑧|
⑪⑤口⑥ |⑨⑩⑪⑫|
⑦⑬⑧⑫ |⑬---|
12
③口口④ |①-②-|
口①②口 |--③-|
④②①③ |----|
口④③口 |④---|
13
⑨①⑤⑨ |①-②③|
①⑥②⑤ |④-⑤-|
口③⑦口 |⑥⑦⑧-|
⑩⑧④⑩ |⑨-⑩-|
14
⑨①⑤⑨ |①-②③|
①⑥②⑤ |④-⑤-|
口③⑦口 |⑥⑦⑧-|
⑩⑧④⑩ |⑨-⑩-|
15
口①⑤口 |①-②③|
①⑥②⑤ |④-⑤-|
⑨③⑦⑨ |⑥⑦⑧-|
口⑧④口 |⑨---|
16
②口口③ |①-②-|
口口①口 |--③-|
口①④口 |----|
③④口② |④---|
17
⑨①⑤⑨ |①-②③|
①⑥②⑤ |④-⑤-|
口③⑦口 |⑥⑦⑧-|
⑩⑧④⑩ |⑨-⑩-|
18
⑨①⑤⑨ |①-②③|
①⑥②⑤ |④-⑤-|
口③⑦口 |⑥⑦⑧-|
⑩⑧④⑩ |⑨-⑩-|
19
⑨①⑤⑨ |①-②③|
①⑥②⑤ |④-⑤-|
口③⑦口 |⑥⑦⑧-|
口⑧④口 |⑨---|
20
口①口口 |①---|
①口口口 |----|
口①口口 |----|
①口口口 |----|
21
①⑮⑫⑯ |①②③④|
⑨③⑧④ |⑤⑥⑦⑧|
⑤⑪②⑥ |⑨⑩⑪⑫|
⑬⑦⑭⑩ |⑬⑭⑮⑯|
22
①口口口 |①--②|
③①口② |--③-|
③口②口
口口口口

口口⑤口
口⑥口口
口口口⑦ |-④--|
⑧④口④ |⑤⑥⑦⑧|
23
口③口① |①--②|
②⑤①⑥ |--③-|
②⑦③口 |-④--|
口④④⑧ |⑤⑥⑦⑧|
24
③⑤⑩⑥ |①②③④|
⑪⑬②⑭ |⑤⑥⑦⑧|
⑨⑮⑧④ |⑨⑩⑪⑫|
①⑦⑫⑯ |⑬⑭⑮⑯|
25
③口⑧④ |①②③④|
口口②口 |⑤⑥⑦⑧|
⑦口口⑥
①⑤口口

口⑨口口
⑪口⑯⑭
口⑬⑩口 |⑨⑩⑪⑫|
⑮口⑫口 |⑬⑭⑮⑯|
26
①③⑤③ |①--②|
⑥①口口 |--③-|
④口④⑦ |-④--|
⑧②口② |⑤⑥⑦⑧|
27
口③口③ |①--②|
口口①① |--③-|
口口口口
口②②口

⑤口口口
口口⑥口
④⑦④口 |-④--|
口口口⑧ |⑤⑥⑦⑧|
28
口口②口 |①②③④|
⑦③口⑥ |⑤⑥⑦⑧|
口口口④
①⑤⑧口

⑬⑪⑯⑩
口口⑭口
⑨⑮⑫口 |⑨⑩⑪⑫|
口口口口 |⑬⑭⑮⑯|
29
口口口口 |①②③④|
⑤①口④ |⑤-⑥⑦|
⑥口口⑦
③⑥⑦②

口口口口
口⑩⑨口
口⑧⑪口 |----|
口口口口 |⑧⑨⑩⑪|
30
①①口③ |①-②-|
⑦⑥口口 |--③-|
⑥⑦口④ |④-⑤⑥|
②③⑤⑦ |--⑦-|
31
①口口口 |①-②-|
口口③口 |--③-|
⑤⑥⑦⑧ |--④-|
②③④口 |⑤⑥⑦⑧|
32
⑥①口③ |①-②-|
①⑥④口 |--③-|
⑦⑦口口 |④-⑤⑥|
②③⑤⑦ |--⑦-|
33
口口口口 |①-②-|
②口口③ |③---|
口口口①
口口口口

口④口口
口口⑤口
⑥⑦⑧⑨ |④--⑤|
口口口口 |⑥⑦⑧⑨|
34
①⑥口③ |①-②-|
⑥①口④ |--③-|
⑦⑦口口 |④-⑤⑥|
②③⑤⑦ |--⑦-|
35
①口口口 |①-②-|
口口③口 |--③-|
⑤⑥⑦⑧ |--④-|
②③④口 |⑤⑥⑦⑧|
36
①①③③ |①-②-|
①⑥④④ |--③-|
⑥⑦⑦口 |④-⑤⑥|
②③⑤⑦ |--⑦-|
37
①⑤④⑧ |①②③④|
口口⑥口 |⑤⑥⑦⑧|
口口口②
③⑦口口

口口口口
⑨⑬口⑫
⑪⑮口⑯ |⑨⑩⑪⑫|
口口⑩⑭ |⑬⑭⑮⑯|
38
①口①口 |①---|
口④口④ |--②-|
③口③口 |--③-|
②⑤②⑤ |④-⑤-|
39
①口①口 |①---|
口④口④ |--②-|
③口③口 |--③-|
②⑤②⑤ |④-⑤-|
40
①口①口 |①---|
口④口④ |--②-|
③口③口 |--③-|
②⑤②⑤ |④-⑤-|
41
①口①口 |①---|
口④口④ |--②-|
③口③口 |--③-|
②⑤②⑤ |④-⑤-|
42
②④⑥⑧ |①-②-|
口口口口 |③-④-|
口③⑦① |⑤-⑥-|
⑤口口口 |⑦-⑧-|
43
②④⑥⑧ |①-②-|
①口口⑦ |③-④-|
口⑤口口 |⑤-⑥-|
口口③口 |⑦-⑧-|
44
②④⑥⑧ |①-②-|
口①口口 |③-④-|
口口⑦口 |⑤-⑥-|
⑤口口③ |⑦-⑧-|
45
③口口口 |①-②-|
①④②④ |③---|
口②口口 |④---|
④口④③ |----|
46
口①口口 |①-②-|
①口③口 |--③-|
口口②口 |④---|
⑤口口④ |--⑤-|
47
口口口① |①-②-|
口④口② |③-④-|
口口③口 |⑤---|
口⑤口口 |----|
48
口口①口 |①-②-|
口口③① |--③-|
口②口口 |④---|
④口口⑤ |--⑤-|
49
①⑧⑦⑥ |①-②-|
②口④口 |③-④-|
口③口口 |⑤-⑥⑦|
口口⑤口 |⑧---|
50
③口口⑦ |①-②-|
⑧口口② |③-④⑤|
口⑥⑤④ |⑥-⑦-|
①口⑩⑨ |⑧-⑨⑩|
51
口④⑨⑨ |①-②-|
⑧⑩②⑤ |③-④⑤|
口⑥口⑦ |⑥⑦⑧-|
③①口口 |⑨-⑩-|
52
⑪⑫⑩⑩ |①-②③|
⑧⑨④④ |④-⑤⑥|
⑤⑥①⑦ |⑦-⑧⑨|
②③⑦① |⑩-⑪⑫|
53
⑨口⑫⑧ |①-②-|
口⑤口③ |③-④-|
④⑦口⑩ |⑤⑥⑦⑧|
②⑪⑥① |⑨⑩⑪⑫|
54
⑧①口口 |①-②-|
①口⑤④ |③-④⑤|
⑦口②⑨ |⑥-⑦-|
③口⑨⑥ |⑧-⑨-|
55
⑧①②口 |①-②-|
①③④④ |③-④-|
口⑤②⑨ |⑤-⑥⑦|
⑤③⑦⑥ |⑧-⑨-|
56
口①⑤③ |①-②-|
①口⑧⑤ |③-④-|
④口②口 |⑤-⑥⑦|
⑨④⑦⑥ |⑧-⑨-|
57
①①⑦⑥ |①-②-|
②②口⑨ |③-④-|
⑧③③④ |⑤-⑥⑦|
⑧④⑤⑤ |⑧-⑨-|
58
③③⑥⑥ |①-②-|
③①②⑥ |③---|
口⑤④口 |④-⑤-|
口口口口 |⑥---|
59
⑤口口⑤ |①-②-|
口①②口 |--③-|
③口口③ |④---|
①④④② |⑤---|
60
口①④口 |①-②-|
①口口④ |--③-|
③②⑤⑥ |④-⑤-|
②口口⑤ |--⑥-|
61
⑤⑨⑫⑧ |①②③④|
⑬①④⑥ |⑤⑥⑦⑧|
⑪⑦⑯⑭ |⑨⑩⑪⑫|
③⑮②⑩ |⑬⑭⑮⑯|
62
口口口② |①---|
口①口口 |--②-|
口口口口 |----|
③口口口 |③---|
63
②口口口 |①--②|
口①口③ |----|
口口④口 |----|
口口口口 |③-④-|
64
①口口④ |①--②|
②⑤口口 |--③-|
口③⑥口 |-④--|
口⑦口口 |⑤⑥⑦-|
65
口口口口 |----|
口口口口 |----|
口口口口 |----|
口口口口 |----|
66
⑤口口① |①-②③|
⑤②⑥① |④-⑤-|
口⑦③口 |⑥⑦⑧-|
⑨④⑧⑩ |⑨-⑩-|
67
⑤口口① |①-②③|
⑤②⑥① |④-⑤-|
口⑦③口 |⑥⑦⑧-|
⑨④⑧⑩ |⑨-⑩-|
68
口③⑤⑤ |①---②-|
③②口② |--③---|
①口①④ |④---⑤-|
⑥⑥④口 |--⑥---|
69
②③口口 |①---|
④⑤①口 |----|
口①⑥⑦ |②③④⑤|
口口⑧⑨ |⑥⑦⑧⑨|
70
⑦口⑧② |①②③④|
口口④⑥ |⑤⑥⑦⑧|
⑤③口口
①口口口

口⑬口⑯
⑪口口口
口口⑩⑫ |⑨⑩⑪⑫|
⑮⑨口⑭ |⑬⑭⑮⑯|
71
⑤⑮⑧⑭ |①②③④|
⑨①⑥④ |⑤⑥⑦⑧|
③⑪⑯⑩ |⑨⑩⑪⑫|
⑬⑦②⑫ |⑬⑭⑮⑯|
72
⑤口⑥口 |①②③④|
口①⑧② |⑤⑥⑦⑧|
③口口口
口⑦④口

口⑮口⑫
⑨口口⑯
口⑬口⑭ |⑨⑩⑪⑫|
⑪口口⑩ |⑬⑭⑮⑯|
73
⑤口④口 |①②③④|
口③⑥口 |⑤⑥⑦⑧|
①口口口
口⑦②⑧

口⑬口⑩
⑨口口⑯
⑮口⑭⑫ |⑨⑩⑪⑫|
⑪口口口 |⑬⑭⑮⑯|
74
③口⑧⑥ |①-②-|
口①口口 |③-④-|
口②口⑤ |⑤-⑥-|
口④口⑦ |⑦-⑧-|
75
⑫⑨口⑧ |①②③④|
⑪⑥⑦④ |⑤⑥⑦⑧|
⑤②③口 |⑨-⑩-|
①口⑩口 |⑪-⑫-|
76
口口口⑥ |①②③④|
口⑦口口 |⑤⑥⑦⑧|
⑤④①⑧
口②口③

⑮⑨⑩口
⑬口口⑭
口口⑯口 |⑨⑩⑪⑫|
⑪口⑫口 |⑬⑭⑮⑯|
77
口⑦口⑥ |①②③④|
口⑤④口 |⑤⑥⑦⑧|
口①口⑧
口③口②

⑮口⑩口
⑪口口⑭
⑬口口口 |⑨⑩⑪⑫|
⑨口⑫⑯ |⑬⑭⑮⑯|
78
口口口口 |①---|
口口①口 |----|
口①①口 |----|
口①口口 |----|
79
③口口④ |①②③④|
口口口② |⑤⑥⑦⑧|
⑦⑤⑧口
①口⑥口

口口口口
⑬⑨⑫⑯
口口口⑩ |⑨⑩⑪⑫|
⑮⑪口⑭ |⑬⑭⑮⑯|
80
①②③④ |①②③④|
⑩⑥口⑨ |--⑤-|
口⑤⑤口 |--⑥⑦|
⑧口⑦⑪ |⑧⑨⑩⑪|
81
口①口② |①--②|
口④②⑥ |--③-|
③⑤④口 |④---|
口③口口 |--⑤⑥|
82
①②③④ |①②③④|
口口⑪口 |--⑤-|
⑤⑩口口 |⑥⑦⑧⑨|
⑨⑧⑦⑥ |--⑩⑪|
83
③①口② |①-②③|
口⑦⑪⑩ |④⑤⑥⑦|
⑤口⑥④ |⑧⑨⑩-|
⑫⑨⑬⑧ |⑪⑫⑬-|
84
①②③④ |①②③④|
⑩⑥口⑨ |--⑤-|
口⑤⑤口 |--⑥⑦|
⑧口⑦⑪ |⑧⑨⑩⑪|
85
口①口② |①--②|
口④②⑤ |--③-|
③口④⑥ |④---|
口③口⑦ |---⑤⑥⑦|
86
①①③③ |①-②-|
⑤⑤②口 |--③-|
口②⑥口 |④---|
口④④⑥ |⑤-⑥-|
87
口口口口 |--①-|
口④①① |②---|
③②口③ |③---|
②④⑤⑤ |④-⑤-|
88
①②③④ |①②③④|
⑩⑥口⑨ |--⑤-|
口⑤⑤口 |--⑥⑦|
⑧口⑦⑪ |⑧⑨⑩⑪|
89
口①口② |①--②|
口④②⑥ |--③-|
③⑤④口 |④---|
口③口口 |--⑤⑥|
90
①②③④ |①②③④|
口口⑪口 |--⑤-|
⑤⑩口口 |⑥⑦⑧⑨|
⑨⑧⑦⑥ |--⑩⑪|
91
③①口② |①-②③|
口⑦⑪⑩ |④⑤⑥⑦|
⑤口⑥④ |⑧⑨⑩-|
⑫⑨⑬⑧ |⑪⑫⑬-|
92
①②③④ |①②③④|
⑩⑥口⑨ |--⑤-|
口⑤⑤口 |--⑥⑦|
⑧口⑦⑪ |⑧⑨⑩⑪|
93
③①②② |①--②|
口口口口 |--③-|
③③口②
口口口口

口⑤口口
口④④口
口口口口 |④---|
口④④口 |--⑤-|
94
⑨⑭⑬① |①②③④|
⑩⑦⑧② |⑤⑥⑦⑧|
⑪⑤⑥③ |⑨⑩⑪⑫|
⑫⑯⑮④ |⑬⑭⑮⑯|
95
口口口① |①②③④|
口⑦⑧② |⑤⑥⑦⑧|
口⑤⑥③
口口口④

⑨⑮⑩⑭
⑬口口⑯
⑪口口口 |⑨⑩⑪⑫|
口口⑫口 |⑬⑭⑮⑯|
96
口③口口 |----|
口③口口 |①---|
口①②② |②---|
①①口② |--③-|
97
①口口口 |①---|
①口口口 |----|
口口口口 |----|
口口口口 |----|

不確定度: 0

最終更新:2014年12月11日 23:46