御千手メディテーション
昇天家族

EXTREME

Level: 10
BPM: 150-190
Notes: 889

BPM: 150
1
口口口口 |----|
口口口口 |----|
①②③④ |----|
口口口口 |①②③④|
2
②口口口 |①---|
口③口口 |----|
口口④口 |②---|
①口口口 |--③④|
3
口②口口 |①---|
口口口口 |----|
口④口口 |②---|
口①③口 |--③④|
4
口③④口 |①---|
②口①口 |--②③|
口口口⑤ |④---|
口口⑥口 |--⑤⑥|
5
口口口口 |①---|
口⑤②口 |----|
口③④口 |②-③-|
口①口口 |④-⑤-|
6
③口口④ |①---|
口口口③ |②---|
口口口② |③---|
①⑥⑤① |④-⑤⑥|
7
④口口④ |①---|
③口口口 |②---|
②口口③ |③---|
①口口① |④---|
8
口②口④ |①---|
口④口③ |②---|
口口口② |③---|
①③口① |④---|
9
①口口口 |①-②-|
②口口口 |③-④-|
③口口⑧ |⑤-⑥-|
④⑤⑥⑦ |⑦-⑧-|
10
口口口① |①---|
口口口口 |----|
口口口口 |----|
口口口口
11
口①口② |----|
口③口口 |①-②-③-|
口口④口 |④-⑤-⑥-|
⑤口⑥口

BPM: 190
12
口口①口 |①---|
口口口① |----|
①口口口 |----|
口①口口
13
口口口口 |----|
口口口口 |----|
口口口口 |----|
口口口口
14
口口口口 |①---|
口口口口 |----|
口①①口 |----|
口口口口
15
口口口口 |----|
口口口口 |----|
口口口口 |----|
口口口口
16
口口口口 |①---|
口①①口 |----|
口口口口 |----|
口口口口
17
口口口口 |----|
口口口口 |----|
口口口口 |----|
口口口口
18
口①①口 |①---|
口口口口 |----|
口口口口 |----|
口口口口
19
口口口口 |----|
口口口口 |----|
②口口① |①-②-|
口口口口
20
①②③口 |①-②-③-|
口④口口 |④-⑤-⑥-|
口⑥⑤口
口口口口

⑪口口⑫
口口⑩口
口口口口 |⑦-⑧-⑨-|
口⑨⑧⑦ |⑩-⑪-⑫-|
21
口口口口 |①-②-③-|
②⑤口④ |④-⑤-⑥-|
①口⑥③
口口口口

口口口⑫
口口⑩口
⑪口口口 |⑦-⑧-⑨-|
⑦⑨口⑧ |⑩-⑪-⑫-|
22
①②③口 |①-②-③-|
口④口口 |④-⑤-⑥-|
口⑥⑤口
口口口口

⑪口口⑫
口口⑩口
口口口口 |⑦-⑧-⑨-|
口⑨⑧⑦ |⑩-⑪-⑫-|
23
口⑤口口 |①-②-③-|
②口⑩④ |④-⑤-⑥-|
①⑨⑥③ |⑦-⑧-⑨-|
⑦⑪⑫⑧ |⑩-⑪-⑫-|
24
①③③② |①---|
口④④② |②---|
①⑤⑤② |③-④-⑤-|
口⑥⑥口 |⑥---|
25
①③③② |①---|
口④④② |②---|
①⑤⑤② |③-④-⑤-|
口⑥⑥口 |⑥---|
26
①③③② |①---|
口④④② |②---|
①⑤⑤② |③-④-⑤-|
口⑥⑥口 |⑥---|
27
口⑦⑧⑥ |①-②-③-|
⑤⑪⑩③ |④-⑤-⑥-|
②⑨⑨④ |⑦-⑧-⑨-|
口⑫⑫① |⑩-⑪-⑫-|
28
①口口② |①---|
③口口④ |②---|
口口口口 |③---|
口口口口 |④---|
29
④口口③ |①---|
口④③口 |②---|
口②①口 |③---|
②口口① |④---|
30
口④①口 |①-②-③-|
⑥⑪⑧③ |④-⑤-⑥-|
⑫⑨⑩⑦ |⑦-⑧-⑨-|
口②⑤口 |⑩-⑪-⑫-|
31
①口口① |①---②-|
口口口口 |----|
口口口口 |----|
②口口② |----|
32
口⑤①① |①-②③|
口口②口 |④⑤⑥⑦|
③口口⑥
口⑦口④

⑩口口⑬
⑭⑫口⑨
口口⑧口 |⑧-⑨⑩|
口口⑪口 |⑪⑫⑬⑭|
33
口⑦④⑪ |①-②③|
口⑫①⑬ |④⑤⑥⑦|
⑩③⑧⑥ |⑧-⑨⑩|
⑤⑭⑨② |⑪⑫⑬⑭|
34
⑤⑩②⑨ |①-②③|
③口①⑬ |④⑤⑥⑦|
⑫口⑧⑥ |⑧-⑨⑩|
⑦⑭⑪④ |⑪⑫⑬⑭|
35
②⑥⑤④ |①--②|
口③①口 |--③-|
口口③⑩ |④⑤⑥-|
⑦⑧⑨② |⑦⑧⑨⑩|
36
⑤口⑩⑧ |①-②③|
⑬⑨①② |④⑤⑥⑦|
⑦③⑥⑭ |⑧⑨⑩⑪|
⑮⑪⑫④ |⑫⑬⑭⑮|
37
⑤⑦⑬⑧ |①-②③|
⑭⑫①④ |④⑤⑥⑦|
⑩③⑥⑪ |⑧-⑨⑩|
口口⑨② |⑪⑫⑬⑭|
38
⑤口口口 |①-②③|
口口②⑥ |④⑤⑥⑦|
口口④口
⑦③口①

口⑪口⑧
口口口口
⑭⑨口⑫ |⑧⑨⑩⑪|
口口⑩⑬ |⑫-⑬⑭|
39
④⑥②⑤ |①②--|
③口①口 |③④--|
⑩⑧⑨⑦ |⑤-⑥-⑦-|
口⑩⑦口 |⑧-⑨-⑩-|
40
口口②⑥ |①-②③|
③⑦①① |④⑤⑥⑦|
口口口口
⑤口口④

口⑫口口
口口口⑬
⑭⑩⑪⑧ |⑧-⑨⑩|
口口⑨口 |⑪⑫⑬⑭|
41
③⑫①⑥ |①-②③|
⑦口②⑪ |④⑤⑥⑦|
口⑩⑨⑬ |⑧-⑨⑩|
⑭⑤⑧④ |⑪⑫⑬⑭|
42
③⑩①⑥ |①-②③|
口⑦②⑪ |④⑤⑥⑦|
⑤⑭⑧⑬ |⑧-⑨⑩|
⑫口⑨④ |⑪⑫⑬⑭|
43
②⑥⑤④ |①--②|
口③①口 |--③-|
口口③⑩ |④⑤⑥-|
⑦⑧⑨② |⑦⑧⑨⑩|
44
④⑭⑪⑦ |①-②③|
⑩⑥①③ |④⑤⑥⑦|
②⑧⑨⑬ |⑧⑨⑩⑪|
⑫口⑮⑤ |⑫⑬⑭⑮|
45
⑤⑮⑩⑧ |①②③④|
⑪⑦②④ |⑤⑥⑦⑧|
①⑨⑫⑭ |⑨⑩⑪⑫|
⑬③口⑥ |⑬⑭⑮-|
46
⑤口口⑥ |①---|
口④③② |②③④⑤|
⑦⑧⑨口 |⑥---|
口①①⑩ |⑦⑧⑨⑩|
47
口⑤口⑥ |①-②③|
口口④⑦ |--④-|
口口口⑧ |⑤---|
①③②⑨ |⑥⑦⑧⑨|
48
①⑤口口 |①-②-|
口⑥口口 |③-④-|
③口口口 |⑤-⑥-|
②④口口
49
口口①⑤ |①-②-|
口口口⑥ |③-④-|
口口③口 |⑤-⑥-|
口口②④
50
⑤口口口 |①-②-|
①②③口 |③-④-|
口①④③ |⑤-⑥-|
⑥口口口
51
口③⑤口 |①-②-|
口④口口 |③-④-|
①口口口 |⑤-⑥-|
口②⑥口
52
口口口③ |①-②-|
口⑤⑤④ |③-④-|
口口①口 |⑤---|
口口口②
53
①⑤口口 |①-②-|
口⑥口口 |③-④-|
③口口口 |⑤-⑥-|
②④口口
54
口口①⑤ |①-②-|
口口口⑥ |③-④-|
口口③口 |⑤-⑥-|
口口②④
55
⑤⑥口口 |①-②-|
①②③口 |③-④-|
口①④③ |⑤-⑥-|
口口⑥⑤
56
口口①② |①-②-|
口④④③ |③---|
③⑤⑤口 |④---⑤-|
②①口口
57
口口口口 |----|
口口口口 |----|
口口口口 |①---|
①口口口
58
①口⑧⑥ |①-②-|
③口⑥⑧ |③-④-|
⑤口④② |⑤-⑥-|
⑦口②④ |⑦-⑧-|
59
④②⑦口 |①-②-|
②④⑧口 |③-④-|
口⑥⑨口 |⑤-⑥-|
⑥①③⑤ |⑦⑧⑨-|
60
口⑨⑥③ |①-②-|
口⑦口① |③-④-|
②⑤⑧④ |⑤-⑥⑦|
口②④口 |⑧-⑨-|
61
①口③② |①---|
口口⑤④ |②---|
④⑤口口 |③-④-|
②③口① |⑤---|
62
①口⑧⑥ |①-②-|
③口⑥⑧ |③-④-|
⑤口④② |⑤-⑥-|
⑦口②④ |⑦-⑧-|
63
④②口口 |①-②-|
②④口口 |③-④-|
口口口口
口①③口

口口口口
口口口口
⑧⑥口⑦ |⑤-⑥-|
⑥⑧口⑤ |⑦-⑧-|
64
⑧④②⑥ |①②--|
⑦③①⑤ |③④--|
口口口口 |⑤⑥--|
口口口口 |⑦⑧--|
65
口⑥⑥口 |①-②-|
口口口口 |③-④-|
⑤④③⑤ |⑤---|
口②①口 |⑥---|
66
②口口口 |①---|
口③口口 |②-③-④-|
口口④口
①口口①

口口⑧口
口口口⑧
口⑤口口 |⑤-⑥-⑦-|
⑨⑦⑥⑨ |⑧---⑨-|
67
①⑧口② |----①-|
⑧口③口 |②-③-④-|
口④⑤口 |⑤-⑥-⑦-|
口⑥⑦口 |⑧---|
68
②口口口 |①---|
口③口口 |②-③-④-|
口口④口
①口口①

口口⑧口
口口口⑧
口⑤口口 |⑤-⑥-⑦-|
⑨⑦⑥⑨ |⑧---⑨-|
69
①⑤⑥口 |----①-|
口⑦④口 |②-③-④-|
口③②口 |⑤-⑥-⑦-|
口⑧⑧口 |⑧---|
70
④⑤⑥口 |①-②-③-|
口⑫⑪⑩ |④-⑤-⑥-|
⑦口口① |⑦-⑧-⑨-|
②⑨⑧③ |⑩-⑪-⑫-|
71
④⑤⑥口 |①-②-③-|
口⑫⑪⑩ |④-⑤-⑥-|
⑦口①③ |⑦-⑧-⑨-|
②⑨口⑧ |⑩-⑪-⑫-|
72
④口口口 |①-②-③-|
⑤口口口 |④-⑤-⑥-|
⑥③②①
口口口口

口⑨⑧⑦
口口口⑩
口口口⑪ |⑦-⑧-⑨-|
口口口⑫ |⑩-⑪-⑫-|
73
口口口口 |①---|
口①①口 |----|
口口口口 |----|
口口口② |②---|
74
口①②口 |①---|
口③④口 |②---|
口口口口 |③---|
口口口口 |④---|
75
口④③口 |①---|
④口口③ |②---|
②口口① |③---|
口②①口 |④---|
76
①口口① |①---②-|
口口口口 |----|
口口口口 |----|
②口口② |----|
77
口口口口 |①---|
口①①口 |----|
①①①① |----|
口口口口 |----|
78
⑦⑤⑥⑦ |①-②③|
口口④口 |--④-|
⑦口口⑦ |⑤-⑥-|
①③②口 |⑦---|
79
口口口口 |①-②③|
⑤口⑥② |④⑤⑥⑦|
口⑦④口
③口①①

⑩口⑧⑪
口⑭口口
⑫口口⑨ |⑧-⑨⑩|
口口口⑬ |⑪⑫⑬⑭|
80
口③口口 |①-②③|
⑦口⑥② |④⑤⑥⑦|
口口④口 |----|
⑤口①口 |----|
81
⑤口④⑧ |①-②③|
⑫⑦⑪① |④⑤⑥⑦|
⑭③⑥⑨ |⑧-⑨⑩|
⑩口⑬② |⑪⑫⑬⑭|
82
②⑥⑤④ |①--②|
口③口① |--③-|
口口③⑩ |④⑤⑥-|
⑦⑧⑨② |⑦⑧⑨⑩|
83
⑦口口⑥ |①-②③|
③口①④ |④⑤⑥⑦|
口⑤口口
口口口②

口⑮⑩口
口⑨⑭口
⑬口⑧口 |⑧⑨⑩⑪|
⑪口⑫口 |⑫⑬⑭⑮|
84
⑦口⑨⑥ |①-②③|
⑤⑫⑬② |④⑤⑥⑦|
⑩③⑧① |⑧-⑨⑩|
⑭口⑪④ |⑪⑫⑬⑭|
85
⑤⑨⑧④ |①-②③|
③口口② |④⑤⑥⑦|
口⑦⑥① |⑧⑨⑩⑪|
口⑪⑩口 |----|
86
③口口③ |①---|
②口口② |②---|
①口口① |③---|
④口口④ |④---|
87
口口⑤口 |①-②③|
②③①④ |④⑤⑥⑦|
⑦口口口
口⑥①口

⑪⑫口⑧
口口⑭口
口口⑩⑬ |⑧-⑨⑩|
口口口⑨ |⑪⑫⑬⑭|
88
⑪口⑧⑨ |①-②③|
②③⑭④ |④⑤⑥⑦|
⑦⑫⑩⑬ |⑧-⑨⑩|
①⑥⑤口 |⑪⑫⑬⑭|
89
口①⑩⑨ |①-②③|
②③⑭⑧ |④⑤⑥⑦|
⑦⑫口⑬ |⑧-⑨⑩|
⑪⑥⑤④ |⑪⑫⑬⑭|
90
②⑥⑤④ |①--②|
①③口口 |--③-|
口口③⑩ |④⑤⑥-|
⑦⑧⑨② |⑦⑧⑨⑩|
91
④口口⑦ |①②③④|
⑥口①口 |⑤⑥⑦⑧|
②⑤⑧口
口口口③

口⑫⑨口
口⑩⑯⑭
口口口口 |⑨⑩⑪⑫|
⑪⑬⑮口 |⑬⑭⑮⑯|
92
③口⑧⑥ |①②③④|
⑤口口口 |⑤⑥⑦⑧|
①⑦口④
口口口②

口⑫口口
口⑨口⑭
⑮口⑩口 |⑨⑩⑪⑫|
⑪⑬⑯口 |⑬⑭⑮⑯|
93
①口口② |①--②|
口⑤⑤口 |--③-|
口⑤⑤口 |-④--|
④口口③ |⑤---|
94
③①①③ |①--②|
口口口口 |--③-|
口口口口
口②②口

口⑨⑧口
⑤口口④
口口口口 |④-⑤-⑥-|
⑦口口⑥ |⑦-⑧-⑨-|
95
口口口口 |--①-|
口①①口 |----|
①①①① |----|
口口口口 |----|

不確定度: 0

最終更新:2014年12月11日 23:35