十面相
YM feat. GUMI

EXTREME

Level: 9
BPM: 173
Notes: 734

1
口口口口 |----|
口口口口 |----|
口口口口 |----|
口口口口 |----|
2
口①①⑪ |①-②③|
⑫④③② |④-⑤⑥|
⑤⑥⑦口 |⑦-⑧⑨|
口⑩⑨⑧ |⑩-⑪⑫|
3
②③④口 |①-②③|
口口⑥⑤ |④-⑤⑥|
口口口①
口口口口

口口口口
口⑦口口
⑧⑨⑩⑫ |⑦-⑧⑨|
⑪口口口 |⑩-⑪⑫|
4
口口口口 |①-②③|
①④③② |④-⑤⑥|
⑤⑥口口
口口口口

口口口⑪
⑫口口口
口口⑦口 |⑦-⑧⑨|
口⑩⑨⑧ |⑩-⑪⑫|
5
②③④口 |①-②③|
口口⑥⑤ |④-⑤⑥|
口⑦⑧① |⑦-⑧-|
口⑨⑩口 |⑨-⑩-|
6
②④⑥⑤ |①-②-|
口口⑤⑥ |③-④-|
①③口口 |⑤-⑥-|
口⑧口⑦ |⑦-⑧-|
7
①②⑥⑤ |①-②-|
②①⑤⑥ |③-④-|
口口口口 |⑤-⑥-|
③⑧④⑦ |⑦-⑧-|
8
②口⑤④ |①-②-|
③口口口 |③-④⑤|
①口口口
口口口口

口⑥口口
口⑥口⑧
⑨⑩口口 |⑥-⑦-|
口口口⑦ |⑧-⑨⑩|
9
④口口② |①-②-|
口口口口 |③-④-|
口口①③
口口①口

口⑥⑤口
口⑧⑦口
口口口口 |⑤⑥⑦⑧|
⑩⑩⑨⑨ |⑨-⑩-|
10
②④⑥⑤ |①-②-|
口口⑤⑥ |③-④-|
①③口口 |⑤-⑥-|
口⑧口⑦ |⑦-⑧-|
11
①②⑥⑤ |①-②-|
②①⑤⑥ |③-④-|
口口口口 |⑤-⑥-|
③⑧④⑦ |⑦-⑧-|
12
②⑥⑤④ |①-②-|
③⑥口口 |③-④⑤|
①⑧口口 |⑥-⑦-|
⑦口⑨口 |⑧-⑨-|
13
④口口口 |①-②-|
口③口① |③-④-|
口口②口
口口口①

口⑩口⑤
⑥口口口
口口⑪⑦ |⑤⑥⑦⑧|
⑧⑫⑨口 |⑨⑩⑪⑫|
14
③⑥②② |①---|
④口①① |②--③|
⑤口口口 |④⑤-⑥|
口口⑦口 |--⑦-|
15
口口⑥⑤ |①-②-|
口口②① |③-④-|
口口③④ |⑤-⑥-|
口口⑦口 |⑦---|
16
②①口口 |①---|
口⑥口⑤ |②---|
②①口口 |③④-⑤|
口④③口 |--⑥-|
17
口口口口 |①-②-|
口口②⑤ |③-④-|
①③⑥口 |⑤-⑥-|
④⑦口口 |⑦---|
18
口②口⑤ |①---|
②⑥口口 |②---|
口④③① |③④-⑤|
口口①口 |--⑥-|
19
②口③⑧ |①-②-|
⑤⑥④⑦ |③-④-|
⑦④⑥⑤ |⑤-⑥-|
⑧③口① |⑦-⑧-|
20
①①②口 |①---|
⑤⑤②口 |②---|
口③④④ |③--④|
口③①① |--⑤-|
21
口口口① |①-②-|
口口口② |③-④-|
④口口口
③口口口

口口⑨⑨
口口口口
口⑥⑤口 |⑤⑥⑦⑧|
口⑧⑦口 |⑨---|
22
①口口⑥ |①---|
⑤②④③ |②---|
口口②口 |③④-⑤|
口口口① |--⑥-|
23
口口口口 |①-②-|
⑤口⑦口 |③-④-|
口⑥口⑧ |⑤-⑥-|
④②③① |⑦-⑧-|
24
②口①口 |①---|
口口口⑥ |②--③|
③④⑤口 |④⑤-⑥|
⑦①口② |--⑦-|
25
⑦口口⑥ |①-②-|
口①③口 |③-④-|
口口口⑤ |⑤-⑥-|
口②④口 |⑦---|
26
口②口⑥ |①---|
③④⑤① |②--③|
①口口口 |④⑤-⑥|
⑦口②口 |--⑦-|
27
⑤⑦⑦⑤ |①-②-|
口④口① |③-④-|
口③口② |⑤-⑥-|
⑥⑧⑧⑥ |⑦-⑧-|
28
③口口口 |①---|
①口⑤① |②---|
②④口② |③-④-|
口口口⑥ |⑤-⑥-|
29
口口口① |①-②-|
口③口口 |③-④-|
口口②口
④口口口

⑤⑥⑦⑧
⑤口⑦口
口⑥口⑧ |⑤-⑥-|
口口口口 |⑦-⑧-|
30
口口口口 |①---|
口③口③ |②-③-|
②口②口
口①①口

④④④口
口口口口
口口口口 |④---|
口⑤⑤口 |⑤---|
31
口③③③ |①-②-|
②口②口 |③---|
口①口①
口口口口

口口口口
口口口口
口⑦⑥⑤ |④---|
口④④口 |⑤⑥⑦-|
32
口口③② |①---|
口口口② |②-③-|
口口口口
①口口①

④口口口
口⑤⑥口
④口⑦口 |④-⑤-|
口口口⑥ |⑥-⑦-|
33
口口④③ |①-②-|
②口口③ |③-④-|
口①口口
口①口口

⑥⑤口口
口口口口
⑤口口口 |⑤-⑥-|
口⑨⑧⑦ |⑦⑧⑨-|
34
④④④① |①---|
口③口③ |②-③-|
②口②① |④---|
口⑤⑤口 |⑤---|
35
④③④③ |①-②-|
②口②口 |③-④-|
口①口① |⑤---|
口⑤⑤口 |----|
36
⑥④④⑥ |①---|
②①①② |②-③-|
口⑤⑤口 |④-⑤-|
⑦③③⑦ |⑥-⑦-|
37
口③③口 |①-②-|
⑤①①⑤ |③-④-|
②口口② |⑤---|
口④④口 |----|
38
④④②② |①---|
④①①② |②---|
口口口口 |③-④-|
①⑤③① |--⑤-|
39
③③①① |①---|
③口口① |②---|
⑤口③④ |③---|
口口②③ |④-⑤-|
40
口③②口 |①---|
③口口② |②---|
口②③口 |③---|
⑤①①④ |④-⑤-|
41
⑥⑥④⑤ |①-②-|
④⑤②③ |③-④-|
②③口① |⑤---|
口①⑥⑥ |⑥---|
42
口口口② |①---|
③④①口 |②---|
口①④② |③---|
③口口口 |--④-|
43
口口①口 |①---|
②口口口 |②---|
口口口②
口①口口

口口口③
口口③口
口③口口 |③---|
③④④口 |④---|
44
②③口③ |①---|
口②③① |②---|
②④①口 |③---|
④口④① |④---|
45
口②①③ |①---|
②④③① |②---|
①④③② |③---|
④口口口 |④---|
46
②口口口 |①-②-|
③口口口 |--③-|
口口口口
口①①口

口口口⑤
口口④口
⑤口口口 |④-⑤-|
⑧⑦⑥口 |⑥⑦⑧-|
47
②⑤③⑤ |①-②-|
④口口① |③-④-|
⑥口①③ |⑤-⑥-|
⑨⑧⑦口 |⑦⑧⑨-|
48
②口③③ |①-②-|
④⑤⑥口 |③-④⑤|
⑦口①口 |⑥-⑦-|
⑩⑨⑧① |⑧⑨⑩-|
49
②口④口 |①-②-|
④口口③ |③-④-|
⑥口②⑤ |⑤-⑥-|
⑨⑧⑦① |⑦⑧⑨-|
50
②口口③ |①-②-|
④口③口 |③-④-|
⑥⑤①⑤ |⑤-⑥-|
⑨⑧⑦① |⑦⑧⑨-|
51
②⑤①③ |①-②-|
④口③① |③-④-|
⑥⑤口口 |⑤-⑥-|
⑨⑧⑦口 |⑦⑧⑨-|
52
②⑤③③ |①-②-|
④口口⑤ |③-④-|
⑥口口① |⑤-⑥-|
⑨⑧⑦① |⑦⑧⑨-|
53
⑦③①② |①-②-|
④③⑥⑤ |③-④-|
⑦口⑤① |⑤-⑥-|
⑧口口口 |⑦-⑧-|
54
⑧⑥④② |①-②-|
口口口口 |③-④-|
⑦⑤③① |⑤-⑥-|
⑦⑤③① |⑦-⑧-|
55
⑦⑤③① |①-②-|
⑦⑤③① |③-④-|
口口口口 |⑤-⑥-|
⑧⑥④② |⑦-⑧-|
56
口③④口 |①---|
③口②④ |②---|
①②口① |③-④-|
④口口③ |----|
57
③口口④ |①---|
口②①口 |②---|
④①②③ |③-④-|
口④③口 |----|
58
口口口口 |①---|
口口④口 |②---|
口④③② |③---|
口口②① |④---|
59
③②口③ |①---|
②①口口 |②---|
口口口口 |③---|
④口口④ |④---|
60
口④口口 |①---|
口③④口 |②---|
口口②口 |③---|
口②①口 |④---|
61
口口口⑨ |①②③④|
口口口口 |⑤⑥⑦⑧|
⑤⑥⑦⑧ |----|
①②③④ |⑨---|
62
口③口口 |①---|
口口口口 |②-③-|
口②口口
①①①①

口口⑤④
口口④⑤
口口口口 |④-⑤-|
口⑦口⑥ |⑥-⑦-|
63
①②⑥⑤ |①-②-|
②①⑤⑥ |③-④-|
口口口口 |⑤-⑥-|
③⑧④⑦ |⑦-⑧-|
64
②口⑤④ |①-②-|
③口口口 |③-④⑤|
①口口口
口口口口

口⑥口口
口⑥口⑧
⑨⑩口口 |⑥-⑦-|
口口口⑦ |⑧-⑨⑩|
65
④口口② |①-②-|
口口口口 |③-④-|
口口①③
口口①口

口⑥⑤口
口⑧⑦口
口口口口 |⑤⑥⑦⑧|
⑩⑩⑨⑨ |⑨-⑩-|
66
②④⑥⑤ |①-②-|
口口⑤⑥ |③-④-|
①③口口 |⑤-⑥-|
口⑧口⑦ |⑦-⑧-|
67
①②⑥⑤ |①-②-|
②①⑤⑥ |③-④-|
口口口口 |⑤-⑥-|
③⑧④⑦ |⑦-⑧-|
68
②⑥⑤④ |①-②-|
③⑥口口 |③-④⑤|
①⑧口口 |⑥-⑦-|
⑦口⑨口 |⑧-⑨-|
69
④口口口 |①-②-|
口③口① |③-④-|
口口②口
口口口①

口⑩口⑤
⑥口口口
口口⑪⑦ |⑤⑥⑦⑧|
⑧⑫⑨口 |⑨⑩⑪⑫|
70
口口口口 |①---|
口口①① |----|
口口口口 |----|
口口口口 |----|
71
②口口口 |----|
口①口口 |----|
口口①口 |----|
口口口② |①-②-|
72
口①口口 |①---|
①口口口 |----|
口口口① |----|
口口①口 |----|

不確定度: 0

最終更新:2014年12月11日 23:20