幻想系世界修復少女
Last Note.

EXTREME

Level: 9
BPM: 193
Notes: 644

1
口口口口 |----|
口口口口 |----|
口口口口 |----|
口口口口 |----|
2
口⑧口① |①-②-|
口②口⑦ |③-④-|
口⑥口③ |⑤-⑥-|
口④口⑤ |⑦-⑧-|
3
①口口口 |--①-|
⑦口②口 |②-③-|
③口⑥口 |④-⑤-|
⑤口④口 |⑥-⑦-|
4
口⑧口① |①-②-|
口②口⑦ |③-④-|
口⑥口③ |⑤-⑥-|
口④口⑤ |⑦-⑧-|
5
①口口⑤ |--①-|
口口②⑥ |②-③-|
③口口⑦ |④--⑤⑥⑦|
⑨④口⑧ |⑧-⑨-|
6
⑧⑧①口 |①-②-|
②口口⑦ |③-④-|
口⑥③口 |⑤-⑥-|
口④⑤口 |⑦-⑧-|
7
⑧⑦⑥⑤ |--①-|
口口口口 |②-③-|
口④⑨口 |④--⑤⑥⑦|
②口③① |⑧-⑨-|
8
⑧⑥⑥⑧ |①-②-|
⑤①①⑤ |③-④-|
②⑦⑦② |⑤-⑥-|
③④④③ |⑦-⑧-|
9
口口口口 |----|
口口口口 |----|
口口口口 |----|
口口口口 |----|
10
口③③口 |①---|
②口口① |②---|
口④④⑤ |③-④-|
②口口① |--⑤-|
11
⑤口⑥④ |①-②-|
⑦口②⑥ |--③-|
①口④口 |④-⑤-|
③口口口 |⑥-⑦-|
12
⑤口口⑤ |--①-|
口④④⑥ |②-③-|
②③③② |④-⑤-|
口①①口 |--⑥-|
13
⑥口②口 |①-②-|
①③③口 |--③-|
④⑥⑤⑦ |④-⑤-|
口④口口 |⑥-⑦-|
14
口③③口 |①---|
①口口② |②---|
⑤④④口 |③-④-|
①口口② |--⑤-|
15
④⑥口⑤ |①-②-|
⑥②口⑦ |--③-|
口④口① |④-⑤-|
口口口③ |⑥-⑦-|
16
⑤口口⑤ |--①-|
⑥④④口 |②-③-|
②③③② |④-⑤-|
口①①口 |--⑥-|
17
口②口⑥ |①-②-|
口③③① |--③-|
⑦⑤⑥④ |④-⑤-|
口口④口 |⑥-⑦-|
18
②口口口 |①---|
口③口① |②-③-|
口口口口
口口口①

口口④口
口口口⑥
口口口⑤ |④---|
口口口口 |⑤-⑥-|
19
口口⑤口 |--①-|
⑥④口口 |②-③-|
④⑥③口 |④-⑤-|
口口②① |⑥---|
20
口口口口 |----|
④口口口 |①-②-|
⑤口②口 |③---|
口③口① |④-⑤-|
21
①②口口 |--①-|
口③⑥④ |②-③-|
口口④⑥ |④-⑤-|
口⑤口口 |⑥---|
22
②口口① |----|
口口口口 |①-②-|
口⑤口口 |③---|
口④口③ |④-⑤-|
23
⑥④⑤口 |--①-|
④⑥②① |②-③-|
口口③口 |④-⑤-|
口口口口 |⑥---|
24
口口口① |①---|
口口口① |②---|
口口口口
口口②②

④④口口
口口⑤⑤
③口口⑤ |③---|
③口口口 |④-⑤-|
25
④③③④ |--①-|
②③口口 |--②-|
②②①口 |--③-|
口①①口 |--④-|
26
口口口口 |----|
口口②① |①-②-|
⑤口④③ |③-④-|
①口⑥⑤ |⑤-⑥-|
27
⑥⑤④③ |--①-|
②口②① |②-③-|
口口口口 |④-⑤-|
口口口⑥ |⑥---|
28
口口②① |----|
口口⑤③ |①-②-|
口④④口 |③---|
口①口口 |④-⑤-|
29
⑥④口口 |--①-|
④②口⑤ |②-③-|
口⑥口③ |④-⑤-|
口口①② |⑥---|
30
口口口口 |----|
口口①④ |①-②-|
口④②⑤ |③---|
①口口③ |④-⑤-|
31
口⑥①⑥ |--①-|
②口②⑤ |②-③-|
口口③口 |④-⑤-|
口口④口 |⑥---|
32
口口①口 |①---|
口口口③ |②---|
④口口① |③---|
口②③口 |④---|
33
口②口① |①---|
③口②口 |②---|
口③口② |③---|
④口③口 |④---|
34
①③①③ |①---|
口②口② |--②-|
①③①③ |----|
口②口② |③---|
35
口口口口 |----|
③③③口 |①---|
②口②口 |②---|
口①口口 |③---|
36
口口①① |①---|
⑤口口② |②---|
口③④口 |③-④-|
口口口口 |--⑤-|
37
口口口口 |--①-|
口②①口 |②---|
④口④口 |③---|
口③③口 |④---|
38
③①③① |①---|
②口②口 |--②-|
③①③① |----|
②口②口 |③---|
39
口口口口 |----|
口③③③ |①---|
口②口② |②---|
口口①口 |③---|
40
①①①① |①---|
口口口口 |----|
口口口口 |----|
口口口口 |----|
41
口②口② |①---|
口①口口 |----|
口口②口 |②---|
①口①口 |----|
42
口③口③ |①---|
①②①② |--②-|
口③口③ |----|
①②①② |③---|
43
口口口口 |----|
③③③口 |①---|
②口②口 |②---|
口①口口 |③---|
44
口口①① |①---|
⑤口口② |②---|
口③④口 |③-④-|
口口口口 |--⑤-|
45
口口口口 |--①-|
口②①口 |②---|
④口口④ |③---|
③口口③ |④---|
46
口②③口 |①---|
口②口③ |②---|
⑤口①口 |③---|
④口①口 |④-⑤-|
47
⑤口口① |--①-|
口④①口 |--②-|
口口③口 |③-④-|
口口口② |⑤---|
48
口②②② |①---|
①③③② |--②-|
①③③② |----|
①①①口 |③---|
49
口④⑤口 |①---|
③口口⑥ |②---|
②口口② |③-④-|
口①①口 |⑤-⑥-|
50
⑤口口① |①---|
④口①⑦ |②-③-|
②口④⑥ |④---|
①口③口 |⑤-⑥⑦|
51
口⑤⑤① |①---|
口④口口 |②-③-|
口②④口 |④---|
口①③口 |⑤---|
52
⑥口口① |①---|
④口③② |②-③-|
②口⑤④ |④-⑤-|
①口⑦⑥ |⑥-⑦-|
53
口⑤口口 |①---|
口③⑤④ |②---|
口②口⑥ |③-④-|
①①口口 |⑤-⑥-|
54
口④⑤口 |①---|
④口口⑤ |②-③-|
②口①口 |--④-|
口②③口 |--⑤-|
55
⑥⑥⑥⑥ |--①-|
口口口口 |②-③-|
④④①⑤ |④-⑤-|
②口口③ |⑥---|
56
口口口口 |①-②-|
⑦②①⑦ |③-④-|
口④③口 |⑤---|
⑥口⑤⑥ |⑥-⑦-|
57
③③③③ |--①-|
口①①口 |--②-|
口②②口 |③---|
口口口口 |----|
58
口口口口 |①---|
①口口口 |②-③-|
口口口②
口③口①

口口口⑤
⑦口口④
⑥④口口 |④---|
口口口口 |⑤-⑥⑦|
59
①⑤⑤口 |①---|
口口④口 |②-③-|
口④②口 |④---|
口③①口 |⑤---|
60
①⑥⑥④ |①-②-|
⑥①④⑥ |③-④-|
③⑤⑤② |--⑤-|
口③②口 |--⑥-|
61
①口口② |----|
口口口口 |----|
③口口口 |--①-|
口口口口 |②-③-|
62
口口②口 |①---|
口③①② |②-③-|
口①③口
口口口口

口④口口
④口⑤口
口口口⑤ |--④-|
口口口口 |--⑤-|
63
口口口口 |--①-|
口⑦口口 |②-③-|
口①⑥口 |④-⑤-|
⑤③②④ |⑥-⑦-|
64
⑥②口① |①-②-|
④⑦③口 |③-④-|
⑥口口⑤ |⑤---|
口⑦⑤口 |⑥-⑦-|
65
口③①口 |①-②-|
③口口② |③---|
口口①口 |----|
口口口② |----|
66
口口口① |①-②-|
口口口口 |③-④-|
③口口口
①②④③

⑦口口⑧
⑤口口口
口口⑥⑤ |⑤-⑥-|
口口口口 |⑦-⑧-|
67
⑦⑤①口 |①-②-|
口口⑥② |③-④-|
⑤⑦⑧④ |⑤-⑥-|
①③口口 |⑦-⑧-|
68
⑥⑧口口 |①-②-|
口⑤口⑤ |③-④-|
④口⑦③ |⑤-⑥-|
②③①口 |⑦-⑧-|
69
口口⑤⑦ |①-②-|
①⑥口口 |③-④-|
④②⑦⑤ |⑤-⑥-|
口⑧③① |⑦-⑧-|
70
口口⑧口 |①-②-|
⑤口②⑥ |③-④-|
③⑦口⑤ |⑤-⑥-|
①口④口 |⑦-⑧-|
71
口口口④ |①-②-|
口口①口 |③-④-|
③口②口
①口口口

⑤⑦口口
⑦⑤⑧⑥
口口口口 |⑤-⑥-|
口口口口 |⑦-⑧-|
72
口⑧①口 |①-②-|
⑥口口⑤ |③-④-|
④⑤⑦③ |⑤-⑥-|
②③口口 |⑦-⑧-|
73
①口⑦⑤ |①-②-|
⑧②⑤⑦ |③-④-|
⑥口口口 |⑤-⑥-|
④口③① |⑦-⑧-|
74
口口⑧口 |①-②-|
口②口⑧ |③-④-|
口⑦①① |⑤-⑥-|
③④⑤⑥ |⑦-⑧-|
75
口⑦口口 |--①-|
⑦③④口 |②-③-|
②口⑥⑤ |④-⑤-|
①口口口 |⑥-⑦-|
76
⑦⑦⑦⑦ |--①-|
口口口① |②-③-|
②⑥⑥⑤ |④-⑤-|
口③④口 |⑥-⑦-|

不確定度: 0

最終更新:2014年12月11日 23:14