encounter
猫叉Master+

ADVANCED

Level: 8
BPM: 190
Notes: 703

1
口口口口 |----|
口口口口 |----|
口口口口 |----|
口口口口 |----|
2
口①②口 |①---|
口口口口 |----|
口①②口 |②---|
口口口③ |③---|
3
口口口口 |①-②-|
①②③口 |③-④-|
口⑥⑤④ |⑤-⑥-|
口口口口 |----|
4
口⑥⑤④ |①-②-|
口口口⑦ |③-④-|
口口口口 |⑤-⑥-|
①②③⑦ |⑦---|
5
口⑥⑤④ |①-②-|
口口口口 |③-④-|
①②③口 |⑤-⑥-|
口口口口 |----|
6
⑧口口口 |①-②-|
①②③口 |③-④-|
口口口⑦ |⑤-⑥-|
口⑥⑤④ |⑦-⑧-|
7
口口口口 |①-②-|
口⑥⑤④ |③-④-|
①②③口 |⑤-⑥-|
口口口口 |----|
8
①②③⑦ |①-②-|
口口口口 |③-④-|
口口口⑦ |⑤-⑥-|
口⑥⑤④ |⑦---|
9
口口口口 |①-②-|
口③②① |③-④-|
④⑤⑥口 |⑤-⑥-|
口口口口 |----|
10
④⑤⑥口 |①-②-|
⑩⑨⑧⑦ |③-④-|
口口口口 |⑤-⑥-|
口③②① |⑦⑧⑨⑩|
11
④⑤⑥口 |①-②-|
口口口口 |③-④-|
口③②① |⑤-⑥-|
口口口口 |----|
12
⑦口口口 |①-②-|
口③②① |③-④-|
⑦口口口 |⑤-⑥-|
④⑤⑥口 |⑦---|
13
口③②① |①-②-|
④⑤⑥口 |③-④-|
口口口口 |⑤-⑥-|
口口口口 |----|
14
口口口口 |①-②-|
口口口⑧ |③-④-|
④⑤⑥口 |⑤-⑥-|
⑦③②① |⑦-⑧-|
15
①②③口 |①-②-|
口口口口 |③-④-|
口口口口 |⑤-⑥-|
口⑥⑤④ |----|
16
口口口口 |①-②-|
①②③⑦ |③-④-|
口⑥⑤④ |⑤-⑥-|
口口口⑦ |⑦---|
17
口⑥⑤④ |①-②-|
口口口口 |③-④-|
口口口口 |⑤-⑥-|
①②③口 |----|
18
⑧⑦⑥⑤ |①-②-|
④⑨⑨口 |③-④-|
①②口① |⑤⑥⑦⑧|
口口③口 |⑨---|
19
⑤口口口 |①---|
口④口① |②-③-|
⑤②口口 |--④-|
③口③① |⑤---|
20
口②口② |①-②-|
口④①④ |--③-|
口口③口 |④---|
口口④口 |----|
21
①口①口 |①---|
③口口口 |②-③-|
口②④口 |--④-|
③⑤口⑤ |⑤---|
22
口口口② |①-②-|
口④①口 |--③-|
口③口② |④---|
④口④口 |----|
23
⑤口口口 |①---|
口④口① |②-③-|
⑤②口口 |--④-|
③口③① |⑤---|
24
口②口② |①-②-|
口④①④ |--③-|
口口③口 |④---|
口口④口 |----|
25
①口①口 |①---|
③口口口 |②-③-|
口②④口 |--④-|
③⑤口⑤ |⑤---|
26
口口口② |①-②-|
口④①④ |--③-|
口③口② |④---|
④口④口 |----|
27
①①①口 |①---|
②②①口 |--②-|
②③口口 |----|
②③③③ |③---|
28
②②②① |--①-|
③③②① |----|
③口①① |②---|
③口口口 |--③-|
29
口口口② |----|
口口口② |①---|
口①②② |--②-|
口①①① |----|
30
①①①口 |①---|
②②①口 |--②-|
②口口口 |----|
②口口口 |----|
31
①口口① |①---|
口口口口 |----|
口①①口 |----|
口口口口 |----|
32
口口口口 |----|
口口口口 |----|
口口口口 |----|
口口口口 |----|
33
③口口口 |①---②-|
口口④口 |--③---|
口口②口 |④---|
口口口① |----|
34
口口口口 |----|
口口口口 |----|
口口口口 |----|
口口口口 |----|
35
口口口口 |①---|
口口口口 |--②-|
口①①口 |----|
③②②口 |③---|
36
口口②① |①---|
④③口⑤ |②-③-|
⑥口口口 |④-⑤⑥|
口口口⑦ |⑦---|
37
口口口口 |①---|
口口口口 |--②-|
口①①口 |----|
③②②口 |③---|
38
口口口③ |①---|
④口②口 |②---|
口①口口 |③-④-|
口口口⑤ |⑤---|
39
口口口口 |①---|
口口口口 |--②-|
口①①口 |----|
口②②③ |③---|
40
③口口② |①---|
口①口④ |②---|
口⑤口口 |③-④-|
口口口⑥ |⑤-⑥-|
41
②口口② |①---|
口①①口 |--②-|
②口口② |----|
口①①口 |----|
42
②口口② |①---|
口①①口 |--②-|
②口口② |----|
口①①口 |----|
43
口口口口 |①---|
口口口口 |--②-|
口①①口 |----|
③②②口 |③---|
44
口口②① |①---|
④③口⑤ |②-③-|
⑥口口口 |④-⑤⑥|
口口口⑦ |⑦---|
45
口口口口 |①---|
口口口口 |--②-|
口①①口 |----|
③②②口 |③---|
46
口口口③ |①---|
④口②口 |②---|
口①口口 |③-④-|
口口口⑤ |⑤---|
47
口口口口 |①---|
口口口口 |--②-|
口①①口 |----|
口②②③ |③---|
48
③口口② |①---|
口①口④ |②---|
口⑤口口 |③-④-|
口口口⑥ |⑤-⑥-|
49
②口口② |①---|
口①①口 |--②-|
②口口② |----|
口①①口 |----|
50
口②②口 |①---|
②①①② |--②-|
口②②口 |----|
口①①口 |----|
51
①口口① |①--②|
口④④口 |--③-|
②⑤⑤② |----|
③口口③ |④--⑤|
52
②③④⑤ |--①-|
口口口口 |----|
⑥口口口 |②③④⑤|
口①①口 |⑥---|
53
④⑤口口 |①--②|
口③②① |--③-|
④⑤口口 |----|
口③②① |④--⑤|
54
口口①口 |--①-|
口③口③ |----|
口口①口 |②---|
口②口② |③---|
55
①口口④ |①--②|
②④①⑤ |--③-|
③⑤②口 |----|
口口③口 |④--⑤|
56
②口口口 |--①-|
②口口口 |----|
口口口① |②---|
口①③③ |③---|
57
④⑤口口 |①--②|
口③②① |--③-|
口③②① |----|
④⑤口口 |④--⑤|
58
口口①口 |--①-|
口③③口 |----|
口②口② |②---|
口口①口 |③---|
59
口①口④ |①--②|
②④⑤① |--③-|
⑤③②口 |----|
口口口③ |④--⑤|
60
口口口口 |--①-|
③口口② |----|
口口口① |②---|
③①口② |③---|
61
③②①口 |①--②|
口④⑤口 |--③-|
口③②① |----|
④⑤口口 |④--⑤|
62
口③口② |--①-|
②口⑤① |-②--|
口⑤口③ |③--④|
④口①④ |--⑤-|
63
口④①口 |①--②|
④②⑤① |--③-|
③⑤②口 |----|
口③口口 |④--⑤|
64
②口⑨口 |--①-|
口⑥口③ |②-③-④-|
④口⑦① |⑤-⑥-⑦-|
⑧⑩①⑤ |⑧-⑨-⑩-|
65
口①口① |①--②|
②口②口 |--③-|
④③④③ |----|
口⑤口⑤ |④--⑤|
66
②③④⑤ |--①-|
⑥⑦⑧⑨ |②③④⑤|
口⑩⑩口 |⑥⑦⑧⑨|
①口①口 |⑩---|
67
口口口口 |①---|
口口口口 |----|
①口口① |----|
①口口① |----|
68
口口口口 |----|
口口①口 |----|
口②口口 |--①-|
口口口口 |-②--|
69
口口口口 |①---|
口口口口 |----|
口口口① |----|
口口口口 |----|
70
口口口口 |①---|
口①口口 |----|
口口口口 |----|
口口口口 |----|
71
①口⑥④ |①---|
②口口口 |②---|
③口口口 |③-④-|
⑤口口口 |⑤-⑥-|
72
口①口口 |①---|
口②⑥④ |②---|
口③口口 |③-④-|
口⑤口口 |⑤-⑥-|
73
①口⑥④ |①---|
②口口口 |②---|
③口口口 |③-④-|
⑤口口口 |⑤-⑥-|
74
口①口口 |①---|
口②⑥④ |②---|
口③口口 |③-④-|
口⑤口口 |⑤-⑥-|
75
①口口① |①---|
口口口口 |----|
①口口①
口口口口

口口口口
②③口②
④口③④ |②--③|
口口口口 |--④-|
76
③③①① |①---|
口口⑤⑤ |②-③-|
口口口口 |--④-|
④④②② |⑤---|
77
⑦⑥⑤④ |①-②-|
②②口口 |--③-|
③③①① |④⑤⑥⑦|
⑪⑩⑨⑧ |⑧⑨⑩⑪|
78
口口⑤⑤ |①---|
③③①① |②-③-|
④④②② |--④-|
口口口口 |⑤---|
79
②②口口 |①-②-|
⑦⑥⑤④ |--③-|
⑪⑩⑨⑧ |④⑤⑥⑦|
③③①① |⑧⑨⑩⑪|
80
③③①① |①---|
口口⑤⑤ |②-③-|
口口口口 |--④-|
④④②② |⑤---|
81
⑦⑥⑤④ |①-②-|
②②口口 |--③-|
③③①① |④⑤⑥⑦|
⑪⑩⑨⑧ |⑧⑨⑩⑪|
82
口口口口 |①---|
口①①口 |--②-|
②口口② |----|
口口口口 |----|
83
①①①① |①---|
口口口口 |--②-|
口口口口 |----|
②②②② |----|
84
③③①① |①---|
口口⑤⑤ |②-③-|
口口口口 |--④-|
④④②② |⑤---|
85
⑦⑥⑤④ |①-②-|
②②口口 |--③-|
③③①① |④⑤⑥⑦|
⑪⑩⑨⑧ |⑧⑨⑩⑪|
86
口口⑤⑤ |①---|
③③①① |②-③-|
④④②② |--④-|
口口口口 |⑤---|
87
②②口口 |①-②-|
⑦⑥⑤④ |--③-|
⑪⑩⑨⑧ |④⑤⑥⑦|
③③①① |⑧⑨⑩⑪|
88
③③①① |①---|
口口⑤⑤ |②-③-|
口口口口 |--④-|
④④②② |⑤---|
89
⑦⑥⑤④ |①-②-|
②②口口 |--③-|
③③①① |④⑤⑥⑦|
⑪⑩⑨⑧ |⑧⑨⑩⑪|
90
口口口口 |①---|
口①①口 |--②-|
②口口② |----|
口口口口 |----|
91
②②②② |①---|
口口口口 |--②-|
口口口口 |----|
①①①① |----|
92
口口口口 |①---|
口口口① |----|
口口口口 |----|
口口口口 |----|
93
口①②口 |----|
口③④口 |--①---|
口⑤⑥口 |②-③-④-|
口⑦⑧口 |⑤---⑥---⑦--⑧|
94
①口口② |--①-②--③|
③口口④ |-④⑤-|
⑤口口⑥ |⑥---⑦-|
⑦口口⑧ |--⑧---|
95
口口口口 |----|
口口口口 |----|
口口口口 |----|
口口口口 |----|
96
口口口口 |----|
口口口口 |----|
口口①口 |----①-|
口口口口 |----|

不確定度: 0

最終更新:2014年12月30日 02:30