Let's ダバダバ

ADVANCED

Level: 7
BPM: 169
Notes: 482

1
口口口口 |----|
口①①口 |----|
口口口口 |①---|
口口口口 |----|
2
①口口口 |①---|
口⑤④口 |②---|
口口口② |③---|
口③口口 |④-⑤-|
3
口口口口 |①-②-|
④⑤⑤③ |③-④-|
②口口① |--⑤-|
口口口口 |----|
4
①口口口 |①---|
口⑤④口 |②---|
口口口② |③---|
口③口口 |④-⑤-|
5
口⑤⑤口 |①-②-|
④口口③ |③-④-|
②口口① |--⑤-|
口口口口 |----|
6
①口口② |①---|
口⑤④口 |②---|
①口③② |③---|
口③口口 |④-⑤-|
7
口⑤⑤口 |①-②-|
④⑥⑥③ |③-④-|
②口口① |--⑤-|
口口口口 |--⑥-|
8
口口⑤口 |----|
④⑥⑥③ |①-②-|
口②①口 |③-④-|
口口口口 |⑤-⑥-|
9
口口口口 |----|
口口口口 |①---|
①口口① |②---|
口②②口 |----|
10
①口口① |①---|
②口口② |②---|
⑥口口⑤ |③-④-|
④口口③ |⑤-⑥-|
11
口口口口 |①-②-|
口①②口 |③-④-|
口口口口
口④③口

口口⑥口
口⑥口⑤
口口口口 |⑤---|
口口口口 |⑥---|
12
①口口① |①---|
②口口② |②---|
口口口口 |③-④-|
④⑥⑤③ |⑤-⑥-|
13
口④④口 |①---|
①口口② |②---|
口③口② |③---|
口口口口 |④---|
14
①口口① |①---|
②口口② |②---|
⑥口口⑤ |③-④-|
④口口③ |⑤-⑥-|
15
口口口口 |①-②-|
口①②口 |③-④-|
口口口口
口④③口

口口⑥口
口⑥口⑤
口口口口 |⑤---|
口口口口 |⑥---|
16
①口口① |①---|
②口口② |②---|
口口口口 |③-④-|
④⑥⑤③ |⑤-⑥-|
17
口④④口 |①---|
①口口② |②---|
口③口② |③---|
口口口口 |④---|
18
⑥⑥口口 |①-②-|
口⑤口口 |③-④-|
③口口④ |⑤---|
口①②口 |⑥---|
19
口口⑦⑦ |①-②-|
口口①⑤ |③-④-|
⑥②口口 |⑤-⑥-|
口④口③ |⑦---|
20
口⑦⑦口 |①-②-|
口⑥⑤口 |③-④-|
④口口③ |⑤-⑥-|
口②①口 |⑦---|
21
口口④④ |①---|
口口口口 |②---|
③①口口 |③---|
口口口② |④---|
22
⑥⑥口口 |①-②-|
⑤口口口 |③-④-|
口③④口 |⑤---|
①口口② |⑥---|
23
口口口口 |①---|
口①①口 |----|
口口口口 |----|
口口口口 |----|
24
口口⑦⑦ |①-②-|
口⑥口⑤ |③-④-|
口④③口 |⑤-⑥-|
②口口① |⑦---|
25
口④④口 |①---|
③口口③ |②---|
口②②口 |③---|
①口口① |④---|
26
口⑥⑥口 |①-②-|
口⑤口口 |③-④-|
口③④口 |⑤---|
口①②口 |⑥---|
27
口口⑦⑦ |①-②-|
口口①⑤ |③-④-|
⑥②口口 |⑤-⑥-|
口④口③ |⑦---|
28
口⑦⑦口 |①-②-|
口⑥⑤口 |③-④-|
口④③口 |⑤-⑥-|
口②①口 |⑦---|
29
口口④④ |①---|
口口口口 |②---|
③口①口 |③---|
口口口② |④---|
30
⑥⑥口口 |①-②-|
⑤口口口 |③-④-|
口③④口 |⑤---|
①口口② |⑥---|
31
口口口口 |①---|
口①①口 |----|
口口口口 |----|
口口口口 |----|
32
口⑧⑧口 |①-②-|
⑥口⑦⑤ |③-④-|
口④③口 |⑤-⑥-|
②口口① |⑦-⑧-|
33
口④④口 |①---|
③口口③ |②---|
口②②口 |③-④-|
①口口① |----|
34
①口口口 |①---|
口⑤④口 |②---|
口口口② |③---|
口③口口 |④-⑤-|
35
口口口口 |①-②-|
④⑤⑤③ |③-④-|
②口口① |--⑤-|
口口口口 |----|
36
①口口口 |①---|
口⑤④口 |②---|
口口口② |③---|
口③口口 |④-⑤-|
37
口⑤⑤口 |①-②-|
④口口③ |③-④-|
②口口① |--⑤-|
口口口口 |----|
38
口③口② |①---|
口口③② |②---|
口①口口 |③---|
口①④⑤ |④-⑤-|
39
④口口口 |①-②-|
①②口口 |③-④-|
口口③口
口口口口

口⑤⑤口
口⑥⑥口
口口口口 |--⑤-|
口口口口 |--⑥-|
40
口口⑤口 |----|
④⑥⑥③ |①-②-|
口②①口 |③-④-|
口口口口 |⑤-⑥-|
41
口口口口 |----|
口口口口 |----|
口口口口 |----|
口口口口 |----|
42
①口口① |①---|
②口口② |②---|
⑥口口⑤ |③-④-|
④口口③ |⑤-⑥-|
43
口口口口 |①-②-|
口①②口 |③-④-|
口口口口
口④③口

口口⑥口
口⑥口⑤
口口口口 |⑤---|
口口口口 |⑥---|
44
①口口① |①---|
②口口② |②---|
口口口口 |③-④-|
④⑥⑤③ |⑤-⑥-|
45
口④④口 |①---|
①口口② |②---|
口③口② |③---|
口口口口 |④---|
46
①口口① |①---|
②口口② |②---|
⑥口口⑤ |③-④-|
④口口③ |⑤-⑥-|
47
口口口口 |①-②-|
口①②口 |③-④-|
口口口口
口④③口

口口⑥口
口⑥口⑤
口口口口 |⑤---|
口口口口 |⑥---|
48
①口口① |①---|
②口口② |②---|
口口口口 |③-④-|
④⑥⑤③ |⑤-⑥-|
49
口口口口 |①---|
口①①口 |----|
口口口口 |----|
口口口口 |----|
50
⑦⑦口口 |①-②-|
口⑤⑥口 |③-④-|
③口口④ |⑤-⑥-|
口①②口 |⑦---|
51
⑦⑦②口 |①-②-|
口③口口 |③-④-|
①口⑥口 |⑤-⑥-|
⑤口口④ |⑦---|
52
口⑦⑦口 |①-②-|
口⑥⑤口 |③-④-|
④口口③ |⑤-⑥-|
口②①口 |⑦---|
53
口口④④ |①---|
口口口口 |②---|
③①口口 |③---|
口口口② |④---|
54
⑥⑥口口 |①-②-|
⑤口口口 |③-④-|
口③④口 |⑤---|
①口口② |⑥---|
55
口口口口 |①---|
口①①口 |----|
口口口口 |----|
口口口口 |----|
56
口口⑦⑦ |①-②-|
口⑥口⑤ |③-④-|
口④③口 |⑤-⑥-|
②口口① |⑦---|
57
口④④口 |①---|
③口口③ |②---|
口②②口 |③---|
①口口① |④---|
58
口⑥⑥口 |①-②-|
口⑤口口 |③-④-|
口③④口 |⑤---|
口①②口 |⑥---|
59
⑦⑦口口 |①-②-|
口③⑥② |③-④-|
①口口口 |⑤-⑥-|
⑤口口④ |⑦---|
60
口⑦⑦口 |①-②-|
⑥口口⑤ |③-④-|
口④③口 |⑤-⑥-|
口②①口 |⑦---|
61
口口④④ |①---|
口口口口 |②---|
③口①口 |③---|
口口口② |④---|
62
⑦⑦口口 |①-②-|
⑤口⑥口 |③-④-|
口③④口 |⑤-⑥-|
①口口② |⑦---|
63
口口口口 |①---|
口口口口 |----|
①口口① |----|
口口口口 |----|
64
口⑦⑦口 |①-②-|
⑥口口⑤ |③-④-|
口④③口 |⑤-⑥-|
②口口① |--⑦-|
65
口④④口 |①---|
③口口③ |②---|
口②②口 |③-④-|
①口口① |----|
66
①口口口 |①---|
口⑤④口 |②---|
口口口② |③---|
口③口口 |④-⑤-|
67
口口口口 |①-②-|
④⑤⑤③ |③-④-|
②口口① |--⑤-|
口口口口 |----|
68
①口口口 |①---|
口⑤④口 |②---|
口口口② |③---|
口③口口 |④-⑤-|
69
口⑤⑤口 |①-②-|
④口口③ |③-④-|
②口口① |--⑤-|
口口口口 |----|
70
口③口② |①---|
口口③② |②---|
口①口口 |③---|
口①④⑤ |④-⑤-|
71
④口口口 |①-②-|
①②口口 |③-④-|
口口③口
口口口口

口⑤⑤口
口⑥⑥口
口口口口 |--⑤-|
口口口口 |--⑥-|
72
口口⑤口 |----|
④⑥⑥③ |①-②-|
口②①口 |③-④-|
口口口口 |⑤-⑥-|
73
口口口口 |----|
口口口口 |①---|
①口口① |②---|
口②②口 |----|
74
①口口① |①---|
②口口② |②---|
口⑥⑤口 |③-④-|
④口口③ |⑤-⑥-|
75
口口口口 |----|
口①①口 |----|
口口口口 |-①--|
口口口口 |----|


不确定度: 0

最終更新:2012年11月08日 18:23