Idola
iconoclasm feat.GUMI

ADVANCED

Level: 8
BPM: 201
Notes: 636

1
口口口口 |----|
口口口口 |----|
口口口口 |----|
口口口口 |----|
2
口口口口 |----|
口口口口 |----|
口口口口 |----|
口口口口 |----|
3
口口口③ |①---|
②①①口 |----|
口①①口 |----|
口口口口 |②-③-|
4
口口口口 |----|
口口口口 |----|
②口口② |①---|
①口口① |②---|
5
④③②口 |①---|
①口口① |----②-|
口口口口 |③---|
口口口口 |--④-|
6
口口⑤口 |①---|
②口①口 |②---|
②口口④ |③-④-|
口③口口 |--⑤-|
7
③②口① |①---|
口口④口 |--②-|
口口口口 |③---|
口口口口 |--④-|
8
口口口口 |①---|
③②口① |--②-|
④口口口 |③---|
口⑤口口 |④-⑤-|
9
口口口口 |①---|
口口口口 |--②-|
口④③③ |③---|
②口①① |--④-|
10
④口③③ |①---|
口②①① |--②-|
口口口口 |③-④-|
口口口口 |----|
11
口口口口 |----|
口口口口 |----|
口口口口 |----|
口口口口 |----|
12
口口口口 |----|
口口口口 |----|
口口口口 |----|
口口口口 |----|
13
口口口口 |----|
口口口口 |----|
口口口口 |----|
口口口口 |----|
14
口口口口 |----|
口口口口 |----|
口口口口 |----|
口口口口 |----|
15
口口口口 |----|
口口口口 |----|
口口口口 |----|
口口口口 |----|
16
口口口口 |----|
口口口口 |----|
口口口口 |----|
口口口口 |----|
17
口口口口 |----|
口口口口 |----|
口口口口 |----|
口口口口 |----|
18
口⑦口⑧ |①-②-|
①口②口 |③-④-|
口⑤口⑥ |⑤-⑥-|
③口④口 |⑦-⑧-|
19
①⑤口口 |①---|
①⑥④口 |②-③-|
口口③口 |④---|
口口②口 |⑤-⑥-|
20
⑤口口口 |①---|
⑥口口④ |②-③-|
口①口③ |④---|
口口口② |⑤-⑥-|
21
口口口口 |①---|
口⑥③口 |②---|
①⑤④② |③-④-|
口口②口 |⑤-⑥-|
22
③口③④ |①---|
②口口口 |②---|
口口⑤④ |③---|
②①口① |④-⑤-|
23
口口⑤口 |①---|
②③④⑤ |②-③-|
口①口口 |④---|
口口口口 |⑤---|
24
口②④口 |①---|
②口口④ |②---|
③③①① |③---|
口口口口 |④---|
25
口②口口 |①---|
②口⑥⑥ |②---|
⑤⑤④④ |③-④-|
③③①① |⑤-⑥-|
26
①口口口 |①---|
口①②口 |----|
口口口口 |----|
口口口口 |----②-|
27
①口口口 |①---|
口①口口 |----|
口口口口
口口口口

口口口口
口②口口
口口口口 |----|
口口口口 |----②-|
28
口口口① |①---|
口口①口 |----|
口口口口
口口口口

口口口口
口口②口
口口口口 |----|
口口口口 |----②-|
29
①口②口 |①---|
口①口② |----|
口口口口 |----|
口口口口 |②---|
30
口①口口 |①---|
①⑤②口 |②-③-|
④③⑥口 |④---|
口口口口 |⑤-⑥-|
31
口口口口 |①---|
口口口口 |②-③-|
口口口① |④---|
④③②口 |----|
32
口②口① |①---|
口②口① |②---|
④口③口 |③---|
④口③口 |④---|
33
口⑧口⑦ |①-②-|
⑥口⑤口 |③-④-|
口④口③ |⑤-⑥-|
口②口① |⑦-⑧-|
34
口口①口 |①---|
④⑤口① |②---|
口口口口 |③---|
②③口口 |④-⑤-|
35
口口口口 |①---|
口口口口 |②---|
④⑤口① |③---|
②③①口 |④-⑤-|
36
口口①口 |①---|
口口口① |②---|
④⑤口口 |③---|
②③口口 |④-⑤-|
37
②口口① |①---|
口②①口 |②---|
④⑤口③ |③-④-|
口④③口 |--⑤-|
38
④口口① |①---|
④口口① |②-③-|
口口③口 |④---|
⑤⑥口② |⑤-⑥-|
39
④口口① |①---|
口④①口 |②-③-|
⑤⑥口口 |④---|
口口③② |⑤-⑥-|
40
口口口① |①---|
口口⑤口 |--②-|
口口④① |--③-|
②口③口 |④-⑤-|
41
①②口② |①---|
口口口③ |②---|
①口口口 |③---|
④口④③ |④---|
42
口口口口 |①---|
口①①口 |----|
口①①口 |----|
口口口口 |----|
43
口口口口 |----|
口口口口 |----|
口口口口 |----|
口口口口 |----|
44
口口口口 |----|
口口口口 |----|
口口口口 |----|
口口口口 |----|
45
口口口口 |----|
口口口口 |----|
口口口② |①---|
口口口① |②---|
46
⑤口口① |①---|
④口①口 |②---|
口口口口 |③---|
②③口口 |④-⑤-|
47
口口口口 |----|
口口口口 |①---|
口口③口 |②---|
①②②口 |③---|
48
口口①口 |①---|
⑤口口① |②-③-|
口口口③ |④---|
②④口④ |⑤---|
49
口①①④ |①---|
口口口③ |②---|
②口口口 |③-④-|
②③口口 |----|
50
①①④口 |①---|
口口③口 |②---|
口口口口 |③-④-|
②③口② |----|
51
口口口口 |①---|
①①口④ |②---|
口口口③ |③-④-|
②③②口 |----|
52
口口口口 |①---|
⑤⑤④④ |②---|
①①口③ |③---|
②③口② |④-⑤-|
53
口①①口 |①---|
⑤⑥口口 |②-③-|
口口③口 |④---|
②④④口 |⑤-⑥-|
54
口口口口 |①---|
口口①口 |②---|
口口口口
口口口②

口口口⑤
口口⑤口
④口口口 |③---|
口口③口 |④-⑤-|
55
口口口口 |----|
口②口口 |①---|
③口口口 |②---|
口口②① |③---|
56
④口口⑤ |①---|
③口口口 |②-③-|
口口口口 |④---|
口①④② |⑤---|
57
口③①口 |①---|
③口口① |②---|
口②④口 |③---|
口口③② |④---|
58
①口口口 |①---|
口③③口 |②---|
口②④口 |③---|
口口③② |④---|
59
①③③① |①---|
口③③① |②---|
口②④口 |③---|
口口③② |④---|
60
①⑥口① |①---|
①口⑤① |②---|
①④口口 |③-④-|
口口③② |⑤-⑥-|
61
④口口口 |①---|
③口⑥① |②-③-|
口⑤①口 |④---|
口口④② |⑤-⑥-|
62
②口口① |①---|
口③口口 |----|
口口口口 |----|
口口口口 |②-③-|
63
口口口口 |①---|
口口口口 |----|
口口①口
口口口口

口口口口
口口口②
口口③口 |----|
口口口口 |②-③-|
64
口口⑤④ |①---|
②口口口 |----②-|
口口口口 |③---|
口①③口 |④-⑤-|
65
口①口口 |①---|
④口口② |②---|
口③③口 |③---|
口口口口 |④---|
66
口口口口 |①---|
口口口② |②---③-|
③④口⑤ |④---|
口①①⑤ |⑤---|
67
①口口口 |①---|
①②②口 |②---|
③口⑥口 |③---|
③⑤④口 |④-⑤-⑥-|
68
口口②口 |①---|
③④口② |②---③-|
口①口⑤ |④---|
口口口⑤ |⑤---|
69
口口口口 |①---|
口⑤②口 |②---|
④③②口 |③---|
①①③口 |④-⑤-|
70
口口①④ |①---|
口⑥口① |②-③-|
⑤③口④ |④---|
②口口口 |⑤-⑥-|
71
口口①④ |①---|
口⑥口④ |②-③-|
⑤③①口 |④---|
②口口口 |⑤-⑥-|
72
②④①③ |①---|
口口口口 |②---|
④②③① |③---|
口口口口 |④---|
73
口口口口 |①---|
②④①③ |②---|
口口口口 |③---|
④②③① |④---|
74
①口口① |①---|
口口口口 |----|
①口口① |----|
口口口口 |----|
75
口口口口 |----|
口口口口 |----|
口口口口 |----|
口口口口 |----|
76
口口口口 |----|
口口口口 |----|
口口口口 |----|
口口口口 |----|
77
口口口⑤ |①-②-|
②口③口 |③-④-|
口④⑦口 |⑤---|
口口⑥① |⑥-⑦-|
78
①①口口 |①---|
①①口口 |②---|
口口⑤④ |③---|
②③口口 |④-⑤-|
79
⑤⑤口口 |①---|
⑤口④③ |②---|
口①口口 |③-④-|
②③口口 |--⑤-|
80
口口口口 |----|
口口④口 |①---|
口口③口 |②---|
①②口口 |③-④-|
81
⑤口①① |①---|
口口口口 |②---|
口口④② |③-④-|
②③③口 |--⑤-|
82
⑤口①① |①---|
口⑥④④ |②-③-|
②口口口 |④---|
口③口口 |⑤-⑥-|
83
口口口口 |①---|
⑤口口口 |②-③-|
②口①① |④---|
⑤③④④ |⑤---|
84
④口④① |①---|
④②②口 |②---|
③①口① |③---|
口③③口 |④---|
85
口①④③ |①---|
口口口① |②---|
④口②口 |③-④-|
③口口② |----|
86
①①口口 |①---|
①①口口 |②---|
④⑤口口 |③---|
口口③② |④-⑤-|
87
口口⑤⑤ |①---|
③④口⑤ |②---|
口口①口 |③-④-|
口口③② |--⑤-|
88
口口口口 |----|
口④口口 |①---|
口③口口 |②---|
口口②① |③-④-|
89
①①口口 |①---|
口口口口 |②---|
②④口口 |③-④-|
口③③② |----|
90
⑤⑤①① |①-②-|
②③④口 |③-④-|
口⑧⑦⑥ |⑤-⑥-|
口口口口 |⑦-⑧-|
91
口口①① |①-②-|
⑦⑤⑥口 |③-④-|
⑤口口⑥ |⑤-⑥-|
②③④口 |--⑦-|
92
口①口④ |①---|
口③④① |②---|
口①②③ |③---|
②④②③ |④---|
93
①口①口 |①---|
口口④② |②---|
①②③③ |③-④-|
口口②口 |----|
94
①①口口 |①---|
①①口口 |②---|
口口口口 |③---|
口②③④ |④---|
95
口口口口 |①---|
口口口口 |②---|
口口口口 |③---|
①②③④ |④---|
96
口口①① |①---|
口口①① |②---|
口口口口 |③---|
①②③④ |④---|
97
口口口口 |①---|
口口口口 |②---|
口口口口 |③---|
①②③④ |④---|
98
口①口口 |①---|
①口①口 |----|
口①口口
口口口口

口口口口
③③③③
②口口② |----|
口口口口 |②-③-|
99
①口①口 |----|
口②口② |----|
口口口口 |①---|
口口口口 |②---|
100
②口口口 |①---|
②口③口 |----②-|
口①③① |③---|
口①口① |----|
101
口口①口 |①---|
口口④① |②---|
③口⑤② |③-④-|
口③②口 |--⑤-|
102
①①④④ |①---|
口口口口 |②-③-|
③口⑥口 |④---|
②口⑤口 |⑤-⑥-|
103
①①口④ |①---|
口口④口 |②-③-|
口⑥口③ |④---|
②④⑤② |⑤-⑥-|
104
口④①口 |①---|
④口口口 |②-③-|
口⑥③口 |④---|
②口口⑤ |⑤-⑥-|
2
BPM: 203
105
④④①① |①---|
④④口① |--②-|
口口口③ |③-④-|
②口口口 |----|
106
口口口口 |①---|
口口口口 |----|
口①①口 |----|
口①①口 |----|

不確定度: 0

最終更新:2014年12月11日 23:17