ルシャナの気持ち
Le Siana

EXTREME

Level: 9
BPM: 172
Notes: 578

1
口口口口 |----|
口口口口 |----|
口口口口 |----|
口口口口 |----|
2
②口口口 |①-②-|
③口①口 |--③-|
④口口口 |--④-|
⑤口口口 |--⑤-|
3
②口口③ |①-②-|
口口①④ |③---|
口口口⑤ |④---|
口口口口 |⑤---|
4
⑤①①② |①---|
口口口口 |②-③-|
口④③口 |--④-|
口③④口 |⑤---|
5
口口口口 |①---|
④①①口 |②-③-|
⑤口口② |--④-|
⑤③③⑤ |⑤---|
6
口④③口 |①---|
⑤③④② |②-③-|
口①①口 |--④-|
口口口口 |⑤---|
7
⑤③③⑤ |①---|
⑤口口口 |②-③-|
④口口口 |--④-|
口①①② |⑤---|
8
⑤口口口 |①---|
④③口① |②-③-|
③④口① |--④-|
口口口② |⑤---|
9
⑤①①④ |①---|
口口④口 |②-③-|
口口③口 |--④-|
口②②③ |⑤---|
10
口③③口 |①---|
③口口③ |②-③-|
②口口② |----|
口①①口 |----|
11
①口口口 |①---|
口②口口 |②---|
口口③④ |③---|
口口④④ |④---|
12
⑤④③② |①-②-|
④⑤②③ |--③-|
口口口口 |--④-|
①①口口 |--⑤-|
13
④③②① |--①-|
③④①② |--②-|
口口口口 |--③-|
口口口口 |--④-|
14
④③②① |--①-|
③④①② |--②-|
口口口口 |--③-|
口口口口 |--④-|
15
口口口口 |--①②|
口口口口 |③-④-|
④⑤⑥⑦ |⑤-⑥-|
口③②① |⑦---|
16
①口口① |①---|
口口口口 |②---|
②③⑤④ |③---|
②③口口 |④-⑤-|
17
③④②① |----|
口口②① |①---|
口口口口 |②---|
口口口口 |③-④-|
18
口④③口 |--①-|
④①口③ |②---|
口口口② |③---|
口口②口 |④---|
19
①⑤口① |①---|
口④口口 |②-③-|
②③③② |--④-|
口口口⑥ |⑤-⑥-|
20
②口④② |①---|
口口③口 |--②-|
口口口① |--③-|
⑤口口口 |④-⑤-|
21
②口口② |①---|
口口③口 |--②-|
①④口口 |----|
口口口口 |③-④-|
22
③口口③ |①-②-|
口②口口 |--③-|
口口①口
口口口口

口口口口
口⑤④口
口口口口 |----|
口口口口 |④-⑤-|
23
口口口口 |①-②-|
口口口口 |--③-|
口②①口 |----|
③口口③ |----|
24
②口口口 |①---|
口口口口 |②---|
口口口口
口①①②

口④口③
口口口口
口口口口 |③---|
③口④口 |④---|
25
④口①口 |①---|
口④③② |②-③-|
②③④口 |--④-|
口①口④ |----|
26
⑤③②① |----|
口④口口 |①-②-|
口口④口 |③---|
①②③⑤ |④-⑤-|
27
口⑤口① |----|
①④口② |①-②-|
②口④③ |③---|
③口⑤口 |④-⑤-|
28
口口③① |----|
口⑤③① |①-②-|
②④⑤口 |③-④-|
②④口口 |--⑤-|
29
①口口① |----|
②口口② |①-②-|
口④口口 |--③-|
口③③口 |--④-|
30
②口口口 |①-②-|
口口①口 |③-④-|
口口口口
④口口③

⑥⑤口口
⑤⑥口口
口口口口 |--⑤-|
口口口口 |--⑥-|
31
④③②① |--①-|
③④①② |--②-|
口口口口 |--③-|
口口口口 |--④-|
32
口口口口 |①---|
口口口口 |②-③-|
口①①口
②③口口

口口口口
口口口口
口⑥口口 |④-⑤-|
口口④⑤ |--⑥-|
33
口口③③ |①-②-|
口②口口 |--③-|
口口①口
口口口口

口口口口
口口口口
④⑤⑥口 |--④-|
口口口口 |⑤-⑥-|
34
②②口口 |①--②|
③③口口 |--③-|
口口口① |----|
口口口口 |----|
35
口口口口 |①---|
口口口口 |--②-|
口③②① |----|
③②①口 |③---|
36
口①①口 |①---|
⑤④③② |②-③-|
口口⑥口 |④-⑤-|
口口口口 |--⑥-|
37
口口③③ |①-②-|
口口口口 |--③-|
口①口口
口口②口

口④口口
口⑤口口
口⑥口口 |--④-|
口口口口 |⑤-⑥-|
38
口口口口 |①--②|
口口③③ |--③-|
口口②② |----|
口①口口 |----|
39
⑩⑨⑧⑦ |①---|
⑥⑤④③ |--②-|
①②口口 |③④⑤⑥|
口①②口 |⑦⑧⑨⑩|
40
口口⑤⑤ |①---|
口口⑥⑥ |②-③-|
②③④① |④-⑤-|
②③④① |--⑥-|
41
②②口口 |①-②-|
①①口口 |--③-|
⑥④④⑥ |--④-|
⑤③③⑤ |⑤-⑥-|
42
②口①④ |----|
口③口④ |①---|
④口③口 |②-③-|
④①口② |--④-|
43
口口口口 |----|
口口①口 |--①-|
口①②口 |----|
口②口口 |②---|
44
④口口① |----|
③⑤口② |①-②-|
②口⑤③ |③-④-|
①口口④ |--⑤-|
45
③口②④ |①-②-|
口口①⑤ |--③-|
口①口⑤ |--④-|
④②口③ |--⑤-|
46
口②②口 |①-②-|
①口口④ |----|
①口口④ |--③-|
口③③口 |--④-|
47
口②②口 |①-②-|
①口⑤口 |----|
①④③口 |--③-|
口口口口 |④-⑤-|
48
③口口③ |①---|
口①口口 |----|
口口口口 |②---|
②口口② |③---|
49
口⑤①口 |----|
口⑥②口 |----|
口⑦③口 |①②③④|
口⑧④口 |⑤⑥⑦⑧|
50
③口③① |①---|
口口口口 |②-③-|
口口口口
口口口②

口⑥口⑥
④口④口
口⑤口口 |--④-|
口口口口 |⑤-⑥-|
51
⑤口口⑤ |①---|
⑥口④⑥ |②-③-|
口口③口 |--④-|
②①①口 |⑤-⑥-|
52
口④③口 |①---|
口③④口 |②-③-|
①口口① |--④-|
口⑥⑤② |⑤-⑥-|
53
口口口口 |①---|
口口口口 |②---|
①②②①
②口口口

口④口③
④③③口
④口口口 |③---|
口口口口 |④---|
54
③口③② |①---|
④口④① |②-③-|
口⑤⑥① |--④-|
口口①口 |⑤-⑥-|
55
④③③口 |①---|
④①口③ |②---|
②④口口 |③---|
口②②口 |④---|
56
口口口口 |①---|
口③①口 |②---|
口口④① |--③-|
②⑤口① |④-⑤-|
57
口口口① |①---|
口⑤口② |②---|
口口④③ |③---|
口口口口 |④-⑤-|
58
③口③① |①---|
口口口口 |②-③-|
口口口口
口口口②

口⑥口⑥
④口④口
口⑤口口 |--④-|
口口口口 |⑤-⑥-|
59
口⑤口口 |①---|
⑥口④⑥ |②-③-|
口口③口 |--④-|
②①①口 |⑤-⑥-|
60
口④③口 |①---|
口③④口 |②-③-|
①口口① |--④-|
口⑥⑤② |⑤-⑥-|
61
口口口口 |①---|
口口口口 |②---|
①②②①
②口口口

口④口③
④③③口
④口口口 |③---|
口口口口 |④---|
62
④⑤⑥③ |①---|
口④③① |②-③-|
口口口① |--④-|
②口①口 |⑤-⑥-|
63
③口口④ |①---|
口③④口 |②-③-|
①⑤口① |--④-|
口口口② |⑤---|
64
口口口④ |①---|
③⑥⑥口 |②-③-|
口⑥⑥② |④-⑤-|
⑤①①口 |--⑥-|
65
④口口口 |①---|
③口口口 |②---|
口口口② |③---|
口口口① |④---|
66
⑤①①② |①---|
口口口口 |②-③-|
口④③口 |--④-|
口③④口 |⑤---|
67
口口口口 |①---|
④①①口 |②-③-|
⑤口口② |--④-|
⑤③③⑤ |⑤---|
68
口④③口 |①---|
⑤③④② |②-③-|
口①①口 |--④-|
口口口口 |⑤---|
69
⑤③③⑤ |①---|
⑤口口口 |②-③-|
④口口口 |--④-|
口①①② |⑤---|
70
⑤口口口 |①---|
④③口① |②-③-|
③④口① |--④-|
口口口② |⑤---|
71
⑤①①④ |①---|
口口④口 |②-③-|
口口③口 |--④-|
口②②③ |⑤---|
72
口③③口 |①---|
③口口③ |②-③-|
②口口② |----|
口①①口 |----|
73
①口口口 |①---|
口②口口 |②---|
口口③④ |③---|
口口④④ |④---|
74
口口口口 |①---|
口口口口 |----|
口口口口 |----|
①①口口 |----|

不確定度: 0

最終更新:2014年12月11日 22:41