LUCKY-YO!!
だいやぁ☆もんど

EXTREME

Level: 9
BPM: 112
Notes: 559

1
⑥口口口 |----|
口⑦口口 |----|
口④③② |①--②③④|
①口口⑤ |⑤-⑥⑦|
2
口口②② |①-②-|
口口口⑤ |③④-⑤|
④口口③
口①①口

⑨⑧⑧⑨
口口口口
口⑦⑥口 |-⑥⑦-|
口口口口 |⑧-⑨-|
3
口口④口 |--①-|
口口①① |②③-④|
口口口口
口③②口

口口口口
⑧口口⑧
口⑥⑤口 |-⑤⑥-|
⑦口口⑦ |⑦-⑧-|
4
口口①① |--①-|
口口口④ |②③-④|
③口口②
口口口口

⑧⑦⑦⑧
口口口口
口⑥⑤口 |-⑤⑥-|
口口口口 |⑦-⑧-|
5
口口口④ |--①-|
口③①① |②③-④|
口口口口
口口②口

口口口口
口⑧⑧口
口⑥⑤口 |-⑤⑥-|
口⑦⑦口 |⑦-⑧-|
6
口口②② |①-②-|
①口口⑤ |③④-⑤|
④口口③
①口口口

⑨⑧⑧⑨
口口口口
口⑦⑥口 |-⑥⑦-|
口口口口 |⑧-⑨-|
7
口口④口 |--①-|
口口①① |②③-④|
口口口口
口③②口

口口口口
⑧口口⑧
口⑥⑤口 |-⑤⑥-|
⑦口口⑦ |⑦-⑧-|
8
口口①① |--①-|
口口口④ |②③-④|
③口口②
口口口口

⑧⑦⑦⑧
口口口口
口⑥⑤口 |-⑤⑥-|
口口口口 |⑦-⑧-|
9
口口口④ |--①-|
口③①① |②③-④|
口口口口
口口②口

口口口口
口⑧⑧口
口⑥⑤口 |-⑤⑥-|
口⑦⑦口 |⑦-⑧-|
10
口口⑤⑥ |①-②-|
①⑦口④ |③-④-|
口口③⑧ |⑤-⑥-|
①口口② |⑦-⑧-|
11
①②①口 |①-②-|
②口②口 |③-④⑤|
①②①口
④口⑤③

⑥⑨口口
口口口口
⑧口⑦口 |-⑥⑦-|
口口口口 |⑧-⑨-|
12
口③口② |--①-|
③口②口 |②-③-|
口②口①
②口①口

⑥口⑤⑦
口④口口
口口④口 |④-⑤-|
⑦⑤口⑥ |⑥-⑦-|
13
口③口⑤ |①-②-|
口②③口 |③④-⑤|
④①②口
口口①口

口口口口
口口⑨口
口口口⑥ |-⑥⑦-|
口口⑦⑧ |⑧-⑨-|
14
口⑤口口 |--①②|
口①口口 |③④-⑤|
②口④⑤
口③口口

口口⑧⑥
口⑦口⑦
口⑥⑧口 |--⑥-|
口口口口 |⑦-⑧-|
15
①口口口 |①-②-|
⑤口②口 |③-④⑤|
口口口④
③口口口

口口⑧口
口口⑧⑧
⑦口⑥口 |--⑥-|
⑦⑦⑥⑥ |⑦-⑧-|
16
①口口口 |①---|
①①口口 |②---|
口②口口
口②②口

④口⑤③
④⑤⑤③
口⑤⑤口 |③-④-|
口口口口 |--⑤-|
17
口口④② |--①-|
⑤口口⑥ |②-③④|
口③⑦口 |--⑤-|
①⑧口口 |⑥⑦⑧-|
18
②口口③ |①-②-|
口口口口 |③---|
②口口③
口口①①

口④⑤口
口⑥⑦口
口⑧⑨口 |④⑤⑥⑦|
口⑩⑪口 |⑧⑨⑩⑪|
19
①①口② |----|
①①口口 |①--②|
口①口口
口口口口

口口④口
口口⑥口
③⑨口⑧ |-③④⑤|
⑤⑦口口 |⑥⑦⑧⑨|
20
②③④口 |①-②③|
口口口口 |④--⑤|
口口口口
口⑤①口

⑬⑪⑫口
口⑨⑩口
口⑦⑧口 |⑥⑦⑧⑨|
口口⑥口 |⑩⑪⑫⑬|
21
②口③⑥ |--①-|
口④⑦① |---②|
⑤⑧①① |-③④⑤|
⑨口①① |⑥⑦⑧⑨|
22
②③口口 |①-②③|
④⑤口① |④⑤--|
口口口①
口口口①

口口⑥口
口⑨⑧⑥
口⑨⑧⑦ |⑥-⑦-|
口口⑦口 |⑧-⑨-|
23
①口口② |①---|
①③口口 |②-③-|
①口口②
①③口口

口⑤口口
⑤口口口
口④④口 |--④-|
口口口口 |--⑤-|
24
口口口口 |①---|
口口口口 |②-③-|
口③口①
②③①口

⑥⑥⑥⑤
⑦⑦④⑤
口口④⑤ |④-⑤-|
口口④⑤ |⑥-⑦-|
25
口口口口 |①---|
口口口口 |②---|
①②②口 |----|
②②②② |----|
26
④④①口 |①-②-|
口③①① |③--④|
②③③口
②②口口

口口⑥口
口⑥⑥口
口⑥⑥口 |--⑤-|
口口⑤⑤ |⑥---|
27
①口口⑤ |--①②|
口口口④ |③④-⑤|
③口口口
⑤口口②

⑧口口口
口⑦⑥口
口⑥⑦口 |--⑥-|
口口口⑧ |⑦-⑧-|
28
④④②口 |①-②-|
口③②② |③--④|
①③③口
①①口口

口口⑥口
口⑥⑥口
口⑥⑥口 |--⑤-|
口口⑤⑤ |⑥---|
29
①口口口 |--①②|
⑤口⑤② |③④-⑤|
口③口口
⑤口⑤④

⑧口口口
口⑥口口
⑥口⑥⑦ |--⑥-|
口⑥口口 |⑦-⑧-|
30
④④①口 |①-②-|
口③①① |③--④|
②③③口
②②口口

口口⑥口
口⑥⑥口
口⑥⑥口 |--⑤-|
口口⑤⑤ |⑥---|
31
①口口⑤ |--①②|
口口口④ |③④-⑤|
③口口口
⑤口口②

⑧口口口
口⑦⑥口
口⑥⑦口 |--⑥-|
口口口⑧ |⑦-⑧-|
32
④④②口 |①-②-|
口③②② |③--④|
①③③口
①①口口

口口⑥口
口⑥⑥口
口⑥⑥口 |--⑤-|
口口⑤⑤ |⑥---|
33
口口口口 |--①-|
②口口③ |②③--|
口口口口
口①①口

口④⑨⑨
口口⑤口
口⑥口口 |④⑤⑥⑦|
⑧⑧口⑦ |⑧-⑨-|
34
口口口口 |①---|
口①口口 |----|
口口①口 |----|
口口口口 |----|
35
口口④口 |--①-|
口口①① |②③-④|
口口口口
口③②口

口口口口
⑧口口⑧
口⑥⑤口 |-⑤⑥-|
⑦口口⑦ |⑦-⑧-|
36
口口①① |--①-|
口口口④ |②③-④|
③口口②
口口口口

⑧⑦⑦⑧
口口口口
口⑥⑤口 |-⑤⑥-|
口口口口 |⑦-⑧-|
37
口口口口 |--①-|
口③①① |②③-④|
口口口④
口口②口

⑥⑧⑧⑤
口口⑦口
口⑦口口 |-⑤⑥-|
口口口口 |⑦-⑧-|
38
口口口口 |①-②-|
口④口② |--③-|
③④①② |④---|
③④①② |----|
39
④口①口 |--①-|
口口①① |②③-④|
②口③口
②②③③

口口口⑤
⑥口口口
口口口口 |--⑤-|
口口口⑦ |⑥-⑦-|
40
口口口口 |①-②-|
口②口④ |--③-|
①②③④ |④---|
①②③④ |----|
41
④口①口 |--①-|
口口①① |②③-④|
②口③口
②②③③

口口口⑤
⑥口口口
口口口口 |--⑤-|
口口口⑦ |⑥-⑦-|
42
口口口口 |①-②-|
口②口④ |--③-|
①②③④ |④---|
①②③④ |----|
43
④口①口 |--①-|
口口①① |②③-④|
②口③口
②②③③

口口口⑤
⑥口口口
口口口口 |--⑤-|
口口口⑦ |⑥-⑦-|
44
口口口口 |①-②-|
口②口④ |--③-|
①②③④ |④---|
①②③④ |----|
45
④口①口 |--①-|
口口①① |②③-④|
②口③口
②②③③

口口口⑤
⑥口口口
口口口口 |--⑤-|
口口口⑦ |⑥-⑦-|
46
口口①口 |①---|
口①①口 |----|
口①①口 |----|
口①口口 |----|

不確定度: 0

最終更新:2014年12月11日 23:44