ケッペキショウ
すこっぷ feat.GUMI

EXTREME

Level: 10
BPM: 190
Notes: 814

1
口口口口 |----|
口口口口 |----|
口口①口 |----|
口口口口 |①---|
2
⑤①⑥⑩ |①-②③|
①⑦②⑥ |④-⑤-|
口③⑧口 |⑥-⑦⑧|
口⑨④口 |⑨-⑩-|
3
口口口口 |①-②-|
口口口口 |③-④-|
①口口②
③口口④

口⑤口口
⑤口⑥口
⑨⑦口口 |⑤-⑥⑦|
口口⑧口 |⑧-⑨-|
4
口⑥①⑤ |①-②③|
⑥②⑦① |④-⑤-|
口⑧③口 |⑥-⑦⑧|
⑩④⑨口 |⑨-⑩-|
5
口⑦①口 |①-②③|
⑦②⑧① |④-⑤-|
⑤⑨③⑥ |⑥-⑦-|
⑩④口口 |⑧⑨⑩-|
6
口⑥①⑤ |①-②③|
⑥②⑦① |④-⑤-|
口⑧③口 |⑥-⑦⑧|
⑩④⑨口 |⑨-⑩-|
7
④口口口 |①-②-|
口口口口 |③-④-|
②口口③
口口口①

口口⑤口
口⑥口⑤
口口⑦口 |⑤-⑥⑦|
口⑧口⑨ |⑧-⑨-|
8
⑤①⑥⑩ |①-②③|
①⑦②⑥ |④-⑤-|
口③⑧口 |⑥-⑦⑧|
口⑨④口 |⑨-⑩-|
9
口①⑥口 |①-②③|
①口②⑥ |④-⑤-|
口③口⑦ |⑥---|
⑤口④口 |--⑦-|
10
口⑥口口 |①-②-|
③④⑤口 |--③-|
口②①口 |④-⑤-|
⑥口口口 |--⑥-|
11
口口①② |--①-|
口口口口 |--②-|
⑤口口④ |--③-|
口①②③ |④-⑤-|
12
⑥口口口 |①-②-|
口⑤④③ |--③-|
口①②口 |④-⑤-|
⑥口口口 |--⑥-|
13
口口③④ |①-②-|
②口口口 |--③-|
①口口⑤ |--④-|
口口④③ |--⑤-|
14
口⑥口口 |①-②-|
③④⑤口 |--③-|
口②①口 |④-⑤-|
⑥口口口 |--⑥-|
15
口口②③ |①-②-|
口口④⑤ |--③-|
①口口⑥ |--④-|
口②③口 |⑤-⑥-|
16
口口⑥口 |①-②-|
③④⑤口 |--③-|
⑥②①口 |④-⑤-|
口口口口 |--⑥-|
17
②①口④ |--①-|
口口口③ |--②-|
口口口① |--③-|
②口口④ |④---|
18
口⑨④⑩ |①-②③|
口③⑧口 |④-⑤-|
①⑦②⑥ |⑥-⑦⑧|
⑤①⑥口 |⑨-⑩-|
19
①口口口 |①-②-|
③口口② |③-④-|
口口口口
口口口④

⑨口⑧口
口⑦口口
⑤口⑥口 |⑤-⑥⑦|
口⑤口口 |⑧-⑨-|
20
⑩④⑨口 |①-②③|
口⑧③口 |④-⑤-|
⑥②⑦① |⑥-⑦⑧|
口⑥①⑤ |⑨-⑩-|
21
口④口⑥ |①-②③|
⑦⑦③口 |④-⑤-|
口②口① |⑥---|
⑤口①⑧ |⑦-⑧-|
22
③③④⑧ |①-②-|
⑦⑦⑤② |③-④-|
口口⑥① |⑤-⑥-|
口口口⑧ |⑦-⑧-|
23
②②③⑥ |--①-|
⑤⑤⑤① |②-③-|
口口④① |--④-|
口口③口 |⑤-⑥-|
24
③③口口 |①-②-|
口口口② |③-④-|
口口口①
口口口④

口口⑧口
⑦⑦⑥口
口口⑤⑧ |⑤-⑥-|
口口口口 |⑦-⑧-|
25
②②口③ |--①-|
⑤⑤④① |②-③-|
口口④⑥ |④---|
口口①③ |⑤-⑥-|
26
口口②⑧ |①-②-|
口口⑥① |③-④-|
③③⑤口 |⑤-⑥-|
⑦⑦口④ |⑦-⑧-|
27
口口口口 |①-②-|
口口口① |③-④-|
③③口②
口口④口

口口口口
口口口⑦
口口⑥口 |--⑤-|
⑥⑥口⑤ |⑥-⑦-|
28
口口②① |①-②-|
口口口口 |③-④-|
③③口口
口口④口

口口口⑧
口口⑥口
口口口⑤ |⑤-⑥-|
⑦⑦口⑧ |⑦-⑧-|
29
④口③口 |--①-|
口④口口 |②-③-|
②②①口 |--④-|
口口③口 |----|
30
⑩口口① |①-②-③-|
⑨口⑪② |④-⑤-⑥-|
⑧口口③ |⑦-⑧-⑨-|
⑦⑥⑤④ |⑩---⑪-|
31
口④⑤⑥ |①-②-③-|
口③口⑦ |④-⑤-⑥-|
口②①口 |⑦---|
口口口口 |----|
32
①口口口 |①-②-③-|
②③④口 |④-⑤-⑥-|
⑪⑥⑤⑩ |⑦-⑧-⑨-|
口⑦⑧⑨ |⑩---⑪-|
33
②③口⑦ |①-②-③-|
①④⑤⑥ |④-⑤-⑥-|
口口口口 |⑦---|
口口口口 |----|
34
口⑥口口 |①-②-③-|
口⑤④口 |④-⑤-⑥-|
口口③②
口口口①

⑦口口口
口口口口
口⑧口口 |⑦---⑧-|
口⑨⑩⑪ |⑨-⑩-⑪-|
35
口口④③ |①-②-③-|
⑦⑥⑤② |④-⑤-⑥-|
⑧⑨口① |⑦---|
口口口口 |⑧-⑨-|
36
口口口口 |①---|
口口③② |--②-|
口口①④ |③---|
口口④口 |--④-|
37
口口④② |--①-|
③口口④ |②-③-|
①口②口 |④---|
口口口口 |----|
38
①口⑥③ |①-②-|
⑤②口口 |③---|
①口口③ |④---|
④②口⑥ |⑤-⑥-|
39
④②口口 |①-②-|
⑦口口口 |③-④-|
⑥③①口 |--⑤-|
⑤④②口 |⑥-⑦-|
40
口口③① |①---|
口口口口 |②-③-|
口②口口
口口①③

口口口⑤
口④口口
口口口口 |--④-|
口口⑤口 |--⑤-|
41
口口口口 |--①-|
④口口① |②-③-|
口③②口 |④---|
口口口口 |----|
42
②⑥口① |①---|
口口口⑤ |②---|
②口口① |③-④-|
⑥口③④ |⑤-⑥-|
43
口口②④ |①-②-|
口口口⑦ |③-④-|
口①③⑥ |--⑤-|
口②④⑤ |⑥-⑦-|
44
①④口口 |①-②-|
口口③口 |③-④-|
口口②口
④①口口

⑥口口⑤
口口口口
口口口口 |--⑤-|
口⑥⑤口 |--⑥-|
45
口口口口 |--①-|
口②③口 |②-③-|
①口口④ |④---|
口口口口 |----|
46
③口②口 |①-②-|
口口口① |③---|
③口②口
口口口①

口口口⑦
⑥口口口
口⑤口口 |④-⑤-|
④口口⑦ |⑥-⑦-|
47
口④②口 |①-②-|
⑦口口口 |③-④-|
⑥口③① |--⑤-|
⑤④②口 |⑥-⑦-|
48
口口③① |①---|
口口口口 |②-③-|
口②口口
口口①③

口口口⑤
口④口口
口口口口 |--④-|
口口⑤口 |--⑤-|
49
口口口口 |--①-|
④口口① |②-③-|
口③②口 |④---|
口口口口 |----|
50
①⑦口③ |①-②-|
口②口⑥ |③---|
①口口③ |④-⑤-|
⑦②④⑤ |⑥-⑦-|
51
口口②④ |①-②-|
口口口⑦ |③-④-|
口①③⑥ |--⑤-|
口②④⑤ |⑥-⑦-|
52
④口口⑤ |①---|
①③③口 |--②-|
①②②口 |③---|
④口口⑤ |④-⑤-|
53
口口口⑤ |--①-|
口口口口 |②-③-|
④口口① |④---|
口③②口 |⑤---|
54
⑤①⑥⑩ |①-②③|
①⑦②⑥ |④-⑤-|
口③⑧口 |⑥-⑦⑧|
口⑨④口 |⑨-⑩-|
55
口口口口 |①-②-|
口口口口 |③-④-|
①口口②
③口口④

口⑤口口
⑤口⑥口
⑨⑦口口 |⑤-⑥⑦|
口口⑧口 |⑧-⑨-|
56
口⑥①⑤ |①-②③|
⑥②⑦① |④-⑤-|
口⑧③口 |⑥-⑦⑧|
⑩④⑨口 |⑨-⑩-|
57
口⑦①口 |①-②③|
⑦②⑧① |④-⑤-|
⑤⑨③⑥ |⑥-⑦-|
⑩④口口 |⑧⑨⑩-|
58
口⑥①⑤ |①-②③|
⑥②⑦① |④-⑤-|
口⑧③口 |⑥-⑦⑧|
⑩④⑨口 |⑨-⑩-|
59
④口口口 |①-②-|
口口口口 |③-④-|
②口口③
口口口①

口口⑤口
口⑥口⑤
口口⑦口 |⑤-⑥⑦|
口⑧口⑨ |⑧-⑨-|
60
⑤①⑥⑩ |①-②③|
①⑦②⑥ |④-⑤-|
口③⑧口 |⑥-⑦⑧|
口⑨④口 |⑨-⑩-|
61
⑦①⑥口 |①-②③|
①⑦②⑥ |④-⑤-|
口③口口 |⑥---|
⑤口④口 |⑦---|
62
口③⑧① |①-②-|
⑦口②⑧ |③-④-|
⑥③口① |⑤-⑥-|
⑤口②④ |⑦-⑧-|
63
口⑧口② |①-②-|
⑦①②口 |③-④-|
⑤③④⑥ |⑤-⑥-|
口口口④ |⑦-⑧-|
64
口口④① |①-②-|
口口口口 |③-④-|
口口口口
②③①④

口⑦口⑧
口⑥口口
口⑤⑧口 |⑤-⑥-|
口口口口 |⑦-⑧-|
65
口口口口 |①-②-|
①口口口 |③-④-|
②口口⑤ |⑤---|
口③④口 |----|
66
①⑧③口 |①-②-|
⑧②口⑦ |③-④-|
①④③⑥ |⑤-⑥-|
口②⑤口 |⑦-⑧-|
67
②口⑧⑦ |①-②-|
口②①⑥ |③-④-|
口④③⑤ |⑤-⑥-|
④口口口 |⑦-⑧-|
68
①④口口 |①-②-|
口口口口 |③-④-|
④口口口
口①③②

⑧口口口
口⑥⑦口
口⑧⑤口 |⑤-⑥-|
⑥口口口 |⑦-⑧-|
69
口口①口 |①-②-|
口口口口 |③-④-|
⑤口口② |⑤---|
口④③口 |----|
70
口③口① |①-②-|
口口②口 |③-④-|
口③口①
口口②④

口口⑧口
⑦口口口
⑥口口⑧ |⑤-⑥-|
⑤口口口 |⑦-⑧-|
71
⑧③口② |①-②-|
⑦①④口 |③-④-|
口⑤②口 |⑤-⑥-|
口口⑥④ |⑦-⑧-|
72
口口④① |①-②-|
口口口口 |③-④-|
口口①④
②③口口

口⑦口⑧
口⑥口口
口⑤⑧口 |⑤-⑥-|
口口口口 |⑦-⑧-|
73
口口口口 |①-②-|
②口⑤③ |③-④-|
①④口口 |⑤---|
口口③⑤ |----|
74
①⑧③口 |①-②-|
口②口⑦ |③-④-|
①④③⑥ |⑤-⑥-|
⑧②⑤口 |⑦-⑧-|
75
②口口口 |①-②-|
口④①⑦ |③-④-|
④口③⑥ |--⑤-|
口②⑤口 |⑥-⑦-|
76
②口①口 |①---|
口口口口 |--②-|
口口口口
②口口口

口④④③
口口口口
口口口口 |③---|
口④④③ |--④-|
77
口口口⑤ |--①-|
④口⑤① |②-③-|
口③②口 |④---|
口口口口 |⑤---|
78
口⑨④⑩ |①-②③|
⑤③⑧口 |④-⑤-|
①⑦②⑥ |⑥-⑦⑧|
⑤①⑥口 |⑨-⑩-|
79
①口口口 |①-②-|
③口口② |③-④-|
口口口口
口口口④

⑨口⑧口
口⑦口口
⑤口⑥口 |⑤-⑥⑦|
口⑤口口 |⑧-⑨-|
80
⑩④⑨口 |①-②③|
⑩⑧③⑤ |④-⑤-|
⑥②⑦① |⑥-⑦⑧|
口⑥①⑤ |⑨-⑩-|
81
⑩④口⑥ |①-②③|
口⑨③⑥ |④-⑤-|
⑦②⑧① |⑥-⑦-|
⑤⑦①口 |⑧⑨⑩-|
82
⑩④⑨⑤ |①-②③|
口⑧③⑤ |④-⑤-|
⑥②⑦① |⑥-⑦⑧|
口⑥①口 |⑨-⑩-|
83
口⑧口⑨ |①-②-|
④口⑦③ |③-④-|
口⑥口⑤ |⑤-⑥⑦|
②口⑤① |⑧-⑨-|
84
⑤⑨④口 |①-②③|
⑤③⑧⑩ |④-⑤-|
①⑦②⑥ |⑥-⑦⑧|
口①⑥⑩ |⑨-⑩-|
85
⑤⑧④⑦ |①-②③|
⑧③⑦口 |④-⑤-|
①⑦②⑥ |⑥-⑦-|
⑦①⑥口 |⑧---|

不確定度: 0

最終更新:2014年12月11日 23:22