Squeeze
VENUS feat. Mutsuhiko Izumi
ADVANCED
Level: 8
BPM: 173
Notes: 431
1
口口口口 |----|
口口口口 |----|
口口口口 |----|
口口口口 |----|
2
口①口口 |①-②-|
口口②⑤ |③-④-|
⑥③口口 |--⑤-|
口口④⑦ |⑥-⑦-|
3
口口⑧⑦ |①-②-|
⑤⑥口口 |③-④-|
口口④③ |⑤-⑥-|
①②口口 |⑦-⑧-|
4
口口口口 |①-②-|
口⑤⑥口 |③-④-|
口⑦口口 |⑤-⑥-|
①②③④ |⑦---|
5
①口口① |①---|
口②口口 |----|
口口②口 |----|
口口口口 |②---|
6
⑦口口⑧ |①-②-|
③口口④ |③-④-|
⑤口口⑥ |⑤-⑥-|
①口口② |⑦-⑧-|
7
口①口口 |①-②-|
口⑤②⑥ |③-④-|
⑦③口口 |⑤-⑥-|
口口④⑧ |⑦-⑧-|
8
口口⑧⑦ |①-②-|
⑤⑥口口 |③-④-|
口口④③ |⑤-⑥-|
①②口口 |⑦-⑧-|
9
口口口口 |①-②-|
口⑤⑥口 |③-④-|
口⑦口口 |⑤-⑥-|
①②③④ |⑦---|
10
①口口② |①-②-|
⑤口口⑥ |③-④-|
③口口④ |⑤-⑥-|
⑦口口⑧ |⑦-⑧-|
11
口①口口 |①-②-|
口⑤②⑥ |③-④-|
⑦③口口 |⑤-⑥-|
口口④⑧ |⑦-⑧-|
12
口口⑧⑦ |①-②-|
⑤⑥口口 |③-④-|
口口④③ |⑤-⑥-|
①②口口 |⑦-⑧-|
13
口口口口 |①---|
口口口口 |----|
口口口口 |----|
口①①口 |----|
14
口①③口 |①-②-|
口②④口 |③-④-|
⑤口口⑦ |⑤-⑥-|
⑥口口⑧ |⑦-⑧-|
15
口①口口 |①-②-|
口⑤②⑥ |③-④-|
⑦③口口 |⑤-⑥-|
口口④⑧ |⑦-⑧-|
16
口口⑧⑦ |①-②-|
⑤⑥口口 |③-④-|
口口④③ |⑤-⑥-|
①②口口 |⑦-⑧-|
17
口口口口 |①-②-|
口⑤⑥口 |③-④-|
口⑦口口 |⑤-⑥-|
①②③④ |⑦---|
18
⑤口口④ |①-②-|
③口口⑥ |③-④-|
⑦口口② |⑤-⑥-|
①口口⑧ |⑦-⑧-|
19
口①口口 |①-②-|
口⑤②⑥ |③-④-|
⑦③口口 |⑤-⑥-|
口口④⑧ |⑦-⑧-|
20
口口⑧⑦ |①-②-|
⑤⑥口口 |③-④-|
口口④③ |⑤-⑥-|
①②口口 |⑦-⑧-|
21
口口口口 |①---|
口口口口 |----|
口口口口 |----|
口①①口 |----|
22
口口口口 |①---|
①口口① |----|
口口口口 |----|
口口口口 |----|
23
口口口口 |①---|
口口②口 |--②-|
③口口口 |----|
口①口口 |③---|
24
口口口① |①---|
口口口口 |----|
口口口口 |----|
口口口口 |----|
25
口口口口 |①---|
③口口口 |--②-|
口口②口 |----|
口①口口 |③---|
26
口口口① |①---|
口②口口 |--②-|
口口口③ |----|
口口口口 |③---|
27
口口口口 |①---|
③口口口 |--②-|
口口②口 |----|
口①口口 |③---|
28
口口口口 |----|
口口口口 |----|
口口口口 |----|
口口口口 |----|
29
口口口口 |①---|
口口口口 |----|
口①①口 |----|
口口口口 |----|
30
口口口① |①---|
口口口口 |----|
口口口口 |②---|
②②口口 |----|
31
口口③口 |①---|
口②口口 |--②-|
口口口口 |----|
口口口① |③---|
32
①口口口 |①---|
口口口口 |----|
口口口口 |②---|
口口②② |----|
33
口口口口 |①---|
③口口口 |--②-|
口口②口 |----|
口①口口 |③---|
34
口口口① |①---|
口②口口 |--②-|
口口口③ |----|
口口口口 |③---|
35
口口口口 |①---|
口口②口 |--②-|
口③口口 |----|
①口口口 |③---|
36
口口口口 |----|
口口口口 |----|
口口口口 |----|
口口口口 |----|
37
口口口口 |①---|
口口口口 |----|
口口口口 |----|
口口①口 |----|
38
口口口口 |①---|
口口口口 |----|
口①①口 |----|
口口口口 |----|
39
①口口② |①-②-|
③口口④ |③-④-|
⑤口口口 |⑤---|
口口口口 |----|
40
口口口口 |①-②-|
口①②口 |③-④-|
口③④口 |⑤---|
口⑤口口 |----|
41
口口口口 |①-②-|
①口口② |③-④-|
③口口④ |⑤---|
⑤口口口 |----|
42
⑥口口⑤ |①-②-|
口①②口 |③-④-|
口③④口 |⑤---|
口⑤⑥口 |⑥---|
43
口①②口 |①-②-|
口③④口 |③-④-|
⑤口口⑥ |⑤-⑥-|
⑦口口⑧ |⑦-⑧-|
44
⑤口口⑥ |①-②-|
⑦口口⑧ |③-④-|
口①②口 |⑤-⑥-|
口③④口 |⑦-⑧-|
45
口⑤⑥口 |①-②-|
口①②口 |③-④-|
口③④口 |⑤-⑥-|
口⑦⑧口 |⑦-⑧-|
46
⑤口口口 |①-②-|
①⑥⑥② |③-④-|
③⑥⑥④ |⑤---|
口口口口 |⑥---|
47
口⑥⑦口 |①-②-|
口⑤⑧口 |③-④-|
②口口③ |⑤-⑥-|
①口口④ |⑦-⑧-|
48
⑥口口⑦ |①-②-|
⑤口口⑧ |③-④-|
口②③口 |⑤-⑥-|
口①④口 |⑦-⑧-|
49
口口口⑦ |①-②-|
口②③⑧ |③-④-|
⑥①④口 |⑤-⑥-|
⑤口口口 |⑦-⑧-|
50
②⑤⑥口 |①-②-|
①口口口 |③-④-|
口口口③ |⑤-⑥-|
口⑦⑧④ |⑦-⑧-|
51
口⑤⑧口 |①-②-|
口⑥⑦口 |③-④-|
①口口④ |⑤-⑥-|
②口口③ |⑦-⑧-|
52
⑤口口⑧ |①-②-|
⑥口口⑦ |③-④-|
口①④口 |⑤-⑥-|
口②③口 |⑦-⑧-|
53
口口口⑧ |①-②-|
口①④⑦ |③-④-|
⑤②③口 |⑤-⑥-|
⑥口口口 |⑦-⑧-|
54
①⑤⑥口 |①-②-|
②口口口 |③-④-|
口口口④ |⑤-⑥-|
口⑦⑧③ |⑦-⑧-|
55
口⑥⑦口 |①-②-|
口⑤⑧口 |③-④-|
②口口③ |⑤-⑥-|
①口口④ |⑦-⑧-|
56
⑥口口⑦ |①-②-|
⑤口口⑧ |③-④-|
口②③口 |⑤-⑥-|
口①④口 |⑦-⑧-|
57
口口口⑦ |①-②-|
口②③⑧ |③-④-|
⑥①④口 |⑤-⑥-|
⑤口口口 |⑦-⑧-|
58
②⑤⑥口 |①-②-|
①口口口 |③-④-|
口口口③ |⑤-⑥-|
口⑦⑧④ |⑦-⑧-|
59
口⑤⑧口 |①-②-|
口⑥⑦口 |③-④-|
①口口④ |⑤-⑥-|
②口口③ |⑦-⑧-|
60
⑤口口⑧ |①-②-|
⑥口口⑦ |③-④-|
口①④口 |⑤-⑥-|
口②③口 |⑦-⑧-|
61
口口口⑧ |①-②-|
口①④⑦ |③-④-|
⑤②③口 |⑤-⑥-|
⑥口口口 |⑦-⑧-|
62
口口口口 |①--②|
口③③口 |--③-|
口②②口
口①①口
口口口口
⑤口口⑤
④口口④ |④---|
口⑤⑤口 |⑤---|
63
①②口① |①---|
⑤口口⑤ |--②-|
④口口④ |③--④|
③口口③ |--⑤-|
64
口口口口 |----|
口口口口 |----|
口口口口 |----|
口口口口 |----|
65
①口口① |①---|
口⑤⑤口 |--②-|
口④④② |③--④|
口③③口 |--⑤-|
66
口口口口 |----|
口口口口 |--①-|
①口口口 |----|
口口口口 |----|
67
①口口① |①---|
⑤②口⑤ |--②-|
④口口④ |③--④|
③口口③ |--⑤-|
68
口口口口 |----|
口口①口 |--①-|
口口口口 |----|
口口口口 |----|
69
①口口① |①---|
口⑤⑤口 |--②-|
口④④② |③--④|
口③③口 |--⑤-|
70
①③口① |----|
③口口口 |①-②-|
口口口口 |③---|
②口口② |----|
71
口口①口 |①---|
口口口① |----|
口口口② |②---|
口口②口 |----|
72
口②③口 |①---|
②口口③ |②---|
①口口④ |③---|
口①④口 |④---|
73
口口口口 |----|
口①①口 |①---|
口①①口 |----|
口口口口 |----|
74
口口口口 |----|
口口口口 |----|
口口口口 |----|
口口口口 |----|
75
口口②口 |----|
①口口② |----|
口口口口 |--①-|
②口①口 |②---|
不確定度: 0