野球の遊び方 そしてその歴史 ~決定版~
あさき大監督

BASIC

Level: 3
BPM: 141
Notes: 291

1
口口口口 |----|
口口口口 |----|
口口口口 |----|
口口口口 |----|
2
口口口口 |①---|
口口口口 |②---|
口③④口 |③---|
口①②口 |④---|
3
口③④口 |①---|
口①②口 |②---|
口口口口 |③---|
口口口口 |④---|
4
①口口② |①---|
③口口④ |②---|
口口口口 |③---|
口口口口 |④---|
5
口口口口 |①---|
口口口口 |②---|
①口口② |③---|
③口口④ |④---|
6
口口④口 |①---|
口③口口 |②---|
口口②口 |③---|
口①口口 |④---|
7
口①口口 |①---|
口口②口 |②---|
口③口口 |③---|
口口④口 |④---|
8
口口口④ |①---|
③口口口 |②---|
口口口② |③---|
①口口口 |④---|
9
口口口口 |①---|
口②②口 |----|
口①①口 |②---|
口口口口 |----|
10
口口口④ |①---|
口口③口 |②---|
口②口口 |③---|
①口口口 |④---|
11
口②①口 |①---|
③③口口 |②---|
口口口口 |③---|
口口口口 |----|
12
④口口口 |①---|
口③口口 |②---|
口口②口 |③---|
口口口① |④---|
13
口①②③ |①---|
口口口④ |②---|
口口口口 |③---|
口口口口 |④---|
14
口口口口 |①---|
口③③口 |②---|
口②口口 |③---|
口①口口 |----|
15
口口口口 |①---|
口③③口 |②---|
口口②口 |③---|
口口①口 |----|
16
④口口口 |①---|
口口口③ |②---|
②口口口 |③---|
口口口① |④---|
17
口①①口 |①---|
②口口② |②---|
口③③口 |③---|
④口口④ |④---|
18
口口口口 |①---|
口口口口 |----|
②口口① |②---|
口口口口 |----|
19
口口口口 |①---|
②口口① |----|
口口口口 |②---|
口口口口 |----|
20
口口口口 |①---|
口④③口 |②---|
口②①口 |③---|
口口口口 |④---|
21
口口①口 |①---|
②口口② |----|
口口口口 |②---|
口口口口 |----|
22
口口③口 |①---|
口口②口 |②---|
口口①口 |③---|
口口口口 |----|
23
口③口口 |①---|
口②口口 |②---|
口①口口 |③---|
口口口口 |----|
24
口口口③ |①---|
口口口② |②---|
口口口① |③---|
口口口口 |----|
25
③口口口 |①---|
②口口口 |②---|
①口口口 |③---|
口口口口 |----|
26
口口口口 |①---|
口③②① |②---|
口口口口 |③---|
口口口口 |----|
27
口口口口 |①---|
口口口口 |②---|
①②③口 |③---|
口口口口 |----|
28
口口口口 |①---|
口口口口 |②---|
口口口口 |③---|
口③②① |----|
29
口口口口 |①---|
口②②口 |----|
口①①口 |②---|
口口口口 |----|
30
口③口口 |①---|
口②口口 |②---|
口①口口 |③---|
口口口口 |----|
31
口口①① |①---|
口口②② |②---|
口口③③ |③---|
口口口口 |----|
32
口口口口 |①---|
口口口口 |②---|
口口口口 |③---|
口③②① |----|
33
口口口口 |①---|
口①①口 |----|
口①①口 |----|
口口口口 |----|
34
口口口① |①---|
口口口② |②---|
口口④③ |③---|
口口口口 |④---|
35
④口口口 |①---|
③口口口 |②---|
②①口口 |③---|
口口口口 |④---|
36
口①②口 |①---|
口④③口 |②---|
口口口口 |③---|
口口口口 |④---|
37
口口口口 |①---|
口口口口 |②---|
②口口② |----|
口①①口 |----|
38
口④口③ |①---|
口②口口 |②---|
口口①口 |③---|
口口口口 |④---|
39
口口口口 |①---|
口口①口 |②---|
②口③口 |③---|
口④口口 |④---|
40
口④③口 |①---|
口②口口 |②---|
口口口① |③---|
口口口口 |④---|
41
口口口口 |①---|
②口口① |②---|
口口③口 |③---|
口④口口 |④---|
42
口口口口 |①---|
④口口口 |②---|
口②③口 |③---|
口口口① |④---|
43
口口①口 |①---|
口②口口 |②---|
口口口③ |③---|
④口口口 |④---|
44
口口口口 |①---|
口②②口 |----|
口①①口 |②---|
口口口口 |----|
45
口①①口 |①---|
口②②口 |----|
口口口口 |②---|
口口口口 |----|
46
口口口④ |①---|
口口口③ |②---|
口口口② |③---|
口口口① |④---|
47
①①口口 |①---|
②②口口 |②---|
③③口口 |③---|
口口口口 |----|
48
口①①口 |①---|
②口口② |----|
③口口③ |②---|
口口口口 |③---|
49
口①①口 |①---|
口口口口 |----|
口②②口 |②---|
口口口口 |----|
50
口口口口 |①---|
②③④口 |②---|
①口口口 |③---|
口口口口 |④---|
51
口口口口 |①---|
口口口① |②---|
口口③② |③---|
口口口口 |----|
52
口口口口 |①---|
口①①口 |----|
口③②口 |②---|
口口口口 |③---|
53
口口口口 |①---|
口口口口 |②---|
③口口③ |③---|
口②①口 |----|
54
口口①口 |①---|
口②口口 |②---|
口口③口 |③---|
口④口口 |④---|
55
口口口口 |①---|
口③②① |②---|
口③②① |③---|
口口口口 |----|
56
口口④口 |①---|
口③口口 |②---|
口口②口 |③---|
口①口口 |④---|
57
①①口口 |①---|
②②口口 |②---|
③③口口 |③---|
口口口口 |----|
58
口口口④ |①---|
口口③口 |②---|
口口口② |③---|
口口①口 |④---|
59
口①①口 |①---|
口②②口 |②---|
口③③口 |③---|
口口口口 |----|
60
口口口口 |①---|
口①①口 |----|
口②③口 |②---|
口口口口 |③---|
61
口口口口 |①---|
口口口口 |②---|
③口口③ |③---|
口①②口 |----|
62
口口口口 |①---|
口①①口 |----|
口口口口 |----|
口口口口 |----|
63
口口口口 |①---|
口口口口 |②---|
口口口口 |③---|
④③②① |④---|
64
口口口口 |①---|
口口口口 |②---|
①②③④ |③---|
口口口口 |④---|
65
口③④口 |①---|
口①②口 |②---|
口口口口 |③---|
口口口口 |④---|
66
①口口② |①---|
③口口④ |②---|
口口口口 |③---|
口口口口 |④---|
67
口口口口 |①---|
口②②口 |----|
口①①口 |②---|
口口口口 |----|
68
口口口口 |①---|
②口口② |----|
①口口① |②---|
口口口口 |----|
69
口①①口 |①---|
口②②口 |②---|
口③③口 |③---|
口④④口 |④---|
70
④口口④ |①---|
③口口③ |②---|
②口口② |③---|
①口口① |④---|
71
口口口口 |①---|
口①①口 |----|
口口口口
口口口口

口口口口
口③③口
口②②口 |②---|
口口口口 |③---|
72
①口口① |--①-|
口口口口 |----|
口口口口 |----|
口口口口 |----|

不確定度: 0

最終更新:2014年07月27日 02:32