野球の遊び方 そしてその歴史 ~決定版~
あさき大監督

ADVANCED

Level: 6
BPM: 141
Notes: 430

1
口口口口 |----|
口口口口 |----|
口口口口 |----|
口口口口 |----|
2
口口口① |①---|
口口口② |②---|
口口口③ |③---|
口口口④ |④---|
3
口④口口 |①---|
口④③口 |②---|
口②③口 |③---|
口②①口 |④---|
4
④口口口 |①---|
③口口口 |②---|
②口口口 |③---|
①口口口 |④---|
5
口①②口 |①---|
口③②口 |②---|
口③④口 |③---|
口口④口 |④---|
6
口口口① |①---|
口口口② |②---|
口口口③ |③---|
口口口④ |④---|
7
口口口口 |①---|
口口口口 |②---|
④口口口 |③---|
③②①口 |④---|
8
②③④口 |①---|
①口口口 |②---|
口口口口 |③---|
口口口口 |④---|
9
口口口口 |①---|
口①①口 |----|
口②②口 |②---|
口口口口 |----|
10
①②⑤口 |①---|
口口③口 |②---|
口④口口 |③-④-|
口口口口 |--⑤-|
11
①口口② |①-②-|
③口口④ |③-④-|
⑤⑦⑥口 |⑤---|
口口口口 |⑥-⑦-|
12
口⑤②① |①---|
口③口口 |②---|
口口④口 |③-④-|
口口口口 |--⑤-|
13
③口口① |①-②-|
④口口② |③-④-|
⑦口口⑤ |⑤-⑥-|
⑧口口⑥ |⑦-⑧-|
14
口口②① |①---|
口④④口 |②---|
口③③口 |③-④-|
⑤口口⑤ |--⑤-|
15
①②口口 |①---|
口④④口 |②---|
口③③口 |③-④-|
⑤口口⑤ |--⑤-|
16
口④④口 |①---|
口⑤⑤口 |②-③-|
口③②口 |④---|
口①①口 |⑤---|
17
⑧口口① |①-②-|
②口口⑦ |③-④-|
⑥口口③ |⑤-⑥-|
④口口⑤ |⑦-⑧-|
18
口口口口 |①---|
口①①口 |②---|
口口口口
口②②口

口口口口
口口④口
口口口③ |③---|
口口口口 |④---|
19
③④④口 |①---|
口②口口 |②---|
①口口口 |③---|
口口口口 |④---|
20
口口口① |①---|
口口口口 |----|
口口口口 |②---|
②②②② |----|
21
口口口口 |①---|
③①①② |----|
⑤①①④ |②-③-|
口口口口 |④-⑤-|
22
口⑤②① |①---|
口③口口 |②---|
口口④口 |③-④-|
口口口口 |--⑤-|
23
②口口① |①-②-|
④口口③ |③-④-|
口⑦口⑤ |⑤---|
口⑥口口 |⑥-⑦-|
24
口口②口 |①---|
口①③口 |②---|
口口④口 |③---|
口口口口 |④---|
25
口口口口 |①---|
②③口口 |----|
口口口口 |----|
口口①口 |②-③-|
26
口口口口 |①---|
口口①口 |----|
口④③② |--②-|
口口口口 |③-④-|
27
口口口口 |①---|
口口②口 |--②-|
①③⑤口 |③---|
口口④口 |④-⑤-|
28
口②口口 |①---|
口③①口 |②---|
口④口口 |③---|
口口口口 |④---|
29
口②②口 |①---|
口口口口 |----|
口口口口 |②---|
①口口① |----|
30
①②⑤口 |①---|
口口③口 |②---|
口④口口 |③-④-|
口口口口 |--⑤-|
31
①口口② |①-②-|
③口口④ |③-④-|
⑤口⑦口 |⑤---|
口口⑥口 |⑥-⑦-|
32
口②口口 |①---|
口③①口 |②---|
口④口口 |③---|
口口口口 |④---|
33
口口口口 |①---|
口口③② |----|
口口口口 |----|
①口口① |②-③-|
34
口口口口 |①---|
口①口口 |----|
②③④口 |--②-|
口口口口 |③-④-|
35
口口口口 |①---|
口②口口 |--②-|
口⑤③① |③---|
口④口口 |④-⑤-|
36
口口②口 |①---|
口①③口 |②---|
口口④口 |③---|
口口口口 |④---|
37
②口口② |①---|
口口③口 |②---|
口③口口 |----|
①口口① |③---|
38
口口口② |①---|
口①口口 |②---|
口口①③ |----|
口口口口 |③---|
39
口口口口 |----|
②口口口 |①---|
口口口口 |----|
①口口口 |②---|
40
口口口① |----|
口口口口 |①---|
口口口② |----|
口口口口 |②---|
41
口口口口 |----|
②口口口 |①---|
口口口口 |----|
①口口口 |②---|
42
口口口口 |①---|
口②②口 |----|
口①①口 |②---|
口口口口 |----|
43
口口口口 |①---|
①口口① |----|
②口口② |②---|
口口口口 |----|
44
口⑦⑥口 |①---|
口⑤④口 |②-③-|
口③②口 |④-⑤-|
①口口① |⑥-⑦-|
45
口口口口 |①---|
①口口① |----|
②口口② |②---|
口口口口 |----|
46
口④口④ |①---|
口②口⑤ |②---|
口口①口 |③-④-|
③口③口 |--⑤-|
47
③口④③ |①---|
口口口口 |②---|
①①②② |③---|
口口口口 |--④-|
48
口①口口 |①---|
口口口④ |----|
②③口④ |②-③-|
②③口口 |--④-|
49
②③口口 |①---|
②③①口 |--②-|
口④①口 |③---|
口口口口 |--④-|
50
口③口口 |①---|
口③①⑤ |②---|
口④口口 |③-④-|
口④②口 |--⑤-|
51
口口口口 |①---|
口口口口 |--②-|
①③口口 |----|
口②②口 |--③-|
52
③口③口 |①---|
口⑤①⑤ |--②-|
④口④口 |③-④-|
②⑥②⑥ |⑤-⑥-|
53
口①口① |①---|
口③②口 |--②-|
口②③口 |③---|
口口口口 |----|
54
⑥口口⑤ |①---|
口④口口 |②--③|
②②③口 |④-⑤-|
①①口口 |--⑥-|
55
口口口⑥ |①--②|
口③⑤⑥ |③--④|
①口口① |⑤---|
口④②口 |--⑥-|
56
①口口口 |①---|
①口口口 |----|
口口口口
口口口口

口口口口
③⑤口②
③口⑤② |②-③-|
口④④口 |④-⑤-|
57
①口④③ |①---|
口⑤②口 |--②-|
口②口口 |③---|
③口口① |--④⑤|
58
口口⑤⑤ |①---|
④④口口 |②---|
②口①口 |③-④-|
②口③③ |--⑤-|
59
③口④口 |①---|
③⑤口口 |--②-|
①①口② |③---|
口口口② |--④⑤|
60
口口口口 |①---|
口口口口 |--②-|
口口①口
②口②口

③口③口
口⑤口⑤
④口④口 |③-④-|
口⑥口⑥ |⑤-⑥-|
61
口①口① |①---|
口口②口 |--②-|
口②口口
口口口口

④口口④
口③口口
口口③口 |③---|
口口口口 |④---|
62
口③口口 |①---|
口口②口 |----|
口②口口 |②---|
①口③① |③---|
63
③③口口 |①---|
口口②① |②---|
口口②① |③-④-|
⑤⑤④④ |--⑤-|
64
口口①① |①---|
口②口口 |②---|
口口②口
口口口口

⑤⑤④④
口口③口
口③口口 |③--④|
口口口口 |--⑤-|
65
口口口口 |①---|
①②口口 |②---|
①②口口 |--③-|
④④③③ |--④-|
66
口口口口 |①---|
口口②① |②---|
口口②①
口口口口

口口口口
口口口口
口口⑤口 |--③-|
口④③口 |④-⑤-|
67
口口口② |①-②-|
口口口口 |----|
口①口口
②口口口

③口口口
口口④口
口⑤口口 |③---|
口口口③ |④-⑤-|
68
口口口① |--①-|
口口口口 |----|
口口口口
①口口口

②口口③
②口口③
口口口口 |②---|
口口口口 |③---|
69
⑥⑦⑧口 |①-②-|
⑤④口口 |③-④-|
口口③② |⑤-⑥-|
口口①口 |⑦-⑧-|
70
口⑧口口 |①-②-|
⑦⑥①口 |③-④-|
口②⑤口 |⑤-⑥-|
③④口口 |⑦-⑧-|
71
口口口① |①---|
口③②① |----|
口⑤④口 |②-③-|
口口口口 |④-⑤-|
72
口口口口 |--①-|
①口口① |----|
①口口① |----|
口口口口 |----|

不確定度: 0

最終更新:2014年07月27日 02:32