デッドボヲルdeホームラン
猫叉Masterβ2

BASIC

Level: 4
BPM: 145
Notes: 312

1
口口口口 |----|
口口口口 |----|
口口口口 |----|
口口口口 |----|
2
①口口口 |①---|
口口口口 |----|
口口口口 |----|
口口口口 |----|
3
口口口口 |----|
口口口口 |----|
口口口口 |----|
口口口口 |----|
4
口口口口 |①---|
①口口② |②---|
③口口④ |③---|
口口口口 |④---|
5
口口口口 |①---|
①口口② |②---|
③口口④ |③---|
口口口口 |④---|
6
口口口口 |①---|
①口口② |②---|
③口口④ |③---|
口口口口 |④---|
7
口口②口 |①-②-|
①口③口 |--③-|
口⑤④口 |--④-|
口口口口 |--⑤-|
8
口口口口 |①---|
口口①口 |②---|
口④口口 |--③-|
②口③口 |--④-|
9
口口口口 |①---|
口口①口 |②---|
口④口口 |--③-|
②口③口 |--④-|
10
口口口口 |①---|
口口①口 |②---|
口④口口 |--③-|
②口③口 |--④-|
11
口口口口 |①---|
④口①③ |②---|
④口口③ |--③-|
②口口口 |④---|
12
口①②口 |①---|
口③④口 |②---|
口口口口 |③---|
口口口口 |④---|
13
口口口口 |①---|
口口口口 |②---|
口①④口 |③---|
口③②口 |④---|
14
①口口② |①---|
③口口④ |②---|
口口口口 |③---|
口口口口 |④---|
15
口口②口 |①-②-|
口口③口 |--③-|
①口④口 |--④-|
口口⑤口 |--⑤-|
16
口①②口 |①---|
口③④口 |②---|
口口口口 |③---|
口口口口 |④---|
17
口口口口 |①---|
口口口口 |②---|
口①④口 |③---|
口③②口 |④---|
18
①口口② |①---|
③口口④ |②---|
口口口口 |③---|
口口口口 |④---|
19
口口②口 |①-②-|
口口③口 |--③-|
①口④口 |--④-|
口口⑤口 |--⑤-|
20
口口口口 |①---|
口④③② |----|
①①口口 |--②-|
口口口口 |③-④-|
21
口口口口 |①---|
①口口口 |②---|
口③②口 |③---|
口口④口 |④---|
22
口④③② |①---|
口口口口 |----|
口口口口 |--②-|
口①口口 |③-④-|
23
①口口口 |①---|
口口②口 |②---|
口③口口 |③---|
口口④口 |④---|
24
口口口口 |①---|
口④③② |----|
口口口口 |--②-|
①口口口 |③-④-|
25
口口口口 |①---|
①口口口 |②---|
口③②口 |③---|
口口④口 |④---|
26
口口口口 |①---|
口口口口 |----|
口口口口 |----|
口①口口 |----|
27
②口口① |①-②-|
④口口③ |③-④-|
⑥口口⑤ |⑤-⑥-|
口口口⑦ |⑦---|
28
③①②③ |①---|
④①②④ |②---|
口口口口 |③---|
口口口口 |④---|
29
口口口口 |①---|
口口口口 |②---|
③①①④ |③---|
③②②④ |④---|
30
口①①口 |①---|
③②②④ |②---|
③口口④ |③---|
口口口口 |④---|
31
口口②口 |①-②-|
口口③口 |--③-|
口①④口 |--④-|
口口⑤口 |--⑤-|
32
③①②③ |①---|
④①②④ |②---|
口口口口 |③---|
口口口口 |④---|
33
口口口口 |①---|
口口口口 |②---|
③①①④ |③---|
③②②④ |④---|
34
口①①口 |①---|
③②②④ |②---|
③口口④ |③---|
口口口口 |④---|
35
口口②口 |①-②-|
口口③口 |--③-|
口①④口 |--④-|
口口⑤口 |--⑤-|
36
口口口口 |①---|
口口口口 |----|
①①口口 |----|
口口口口 |----|
37
③口口③ |①---|
口②②口 |②---|
口①①口 |----|
口口口口 |--③---|
38
口口口口 |①---|
口口口口 |----|
①口口① |----|
口口口口 |----|
39
口口口口 |①---|
口②②口 |②---|
口①①口 |----|
口口口口 |----|
40
口口口口 |①---|
①口口① |----|
口口口口 |----|
口口口口 |----|
41
③口口③ |①---|
口②②口 |②---|
口①①口 |----|
口口口口 |--③---|
42
口口口口 |①---|
口口口口 |----|
①口口① |----|
口口口口 |----|
43
口口口口 |①---|
③②②④ |②---|
③①①④ |--③-|
口口口口 |--④---|
44
①①①① |①---|
③口口③ |--②-|
口②②口 |----|
口口口口 |--③-|
45
口口口口 |----|
口①①口 |--①-|
②口口② |----|
口口口口 |②---|
46
口口口口 |①---|
口口口口 |--②-|
口②②口 |----|
③①①③ |--③-|
47
口口口口 |----|
②口口② |--①-|
口口口口 |----|
口①①口 |②---|
48
口①②口 |①---|
口③④口 |②---|
口口口口 |③---|
口口口口 |④---|
49
口口口口 |①---|
口口口口 |②---|
①口口② |③---|
③口口④ |④---|
50
口口口口 |①---|
口口口口 |②---|
口③④口 |③---|
口①②口 |④---|
51
口③口口 |①---|
口①②口 |②---|
口口口口 |③---|
口口口口 |----|
52
口口口① |①---|
②②口口 |②---|
口口口③ |③---|
④④口口 |④---|
53
④④口口 |①---|
口口口③ |②---|
②②口口 |③---|
口口口① |④---|
54
口口口① |①---|
口②口口 |--②-|
口口口口 |----|
口口口口 |----|
55
口口口口 |①---|
口②①口 |②---|
口④③口 |③---|
口口口口 |④---|
56
口口④④ |①---|
口口口③ |②---|
口口②② |③---|
口口口① |④---|
57
④④口口 |①---|
③口口口 |②---|
②②口口 |③---|
①口口口 |④---|
58
口口①口 |①---|
②②口口 |②---|
口口③口 |③---|
④④口口 |④---|
59
①口口① |①---|
②口口② |----|
口口口口 |②---|
口口口口 |----|
60
口口口口 |①---|
口③③口 |--②-|
口②②口 |----|
口①①口 |③---|
61
口①①口 |--①-|
口口口口 |----|
③口口③ |②---|
②口口② |--③-|
62
②口口② |----|
①口口① |①---|
口口口口 |--②-|
口口口口 |----|
63
口④④口 |①---|
口③③口 |②---|
口②②口 |③---|
口①①口 |④---|
64
④④④④ |①---|
③③③③ |②---|
②②②② |③---|
①①①① |④---|
65
口口口口 |----|
口口口口 |----|
口①①口 |①---|
口口口口 |----|

不確定度: 0

最終更新:2014年07月27日 02:31