Let's ダバダバ

EXTREME

Level: 9
BPM: 169
Notes: 763

1
口口口口 |----|
口①①口 |----|
口①①口 |--①-|
口口口口 |----|
2
①口口口 |①-②-|
③⑧口口 |③-④-|
⑤口⑧口 |⑤-⑥-|
⑦⑥④② |⑦-⑧-|
3
①③⑤口 |①-②-|
口口⑧⑥ |③-④-|
口⑦口④ |⑤-⑥-|
口口口② |⑦-⑧-|
4
①口口口 |①-②-|
③⑧口口 |③-④-|
⑤口⑧口 |⑤-⑥-|
⑦⑥④② |⑦-⑧-|
5
⑤⑥①口 |①-②-|
②口⑦⑧ |③-④-|
⑨⑩口③ |⑤⑥⑦⑧|
口④⑪⑫ |⑨⑩⑪⑫|
6
⑤口③④ |①-②-|
①②口口 |③-④-|
⑥口③⑤ |⑤---|
①⑦口口 |⑥-⑦-|
7
④③口④ |①-②-|
口口②① |③-④-|
⑤③口⑥ |--⑤-|
口⑦⑦① |⑥-⑦-|
8
⑥①①⑧ |①-②-|
②③③② |③-④-|
⑦④④⑤ |⑤-⑥-|
②口口② |⑦-⑧-|
9
⑤⑥①口 |①-②-|
②口⑦⑧ |③-④-|
⑨⑩口③ |⑤⑥⑦⑧|
口④⑪⑫ |⑨⑩⑪⑫|
10
口口口④ |①---|
①①③口 |②---|
口⑤②② |③-④-|
⑥口口口 |⑤-⑥-|
11
①⑥⑥口 |①-②-|
口②口口 |③-④-|
口口③口 |⑤---|
口⑤⑤④ |⑥---|
12
④口口口 |①---|
口③①① |②---|
②②⑤口 |③-④-|
口口口⑥ |⑤-⑥-|
13
口口口口 |①②③④|
②⑩⑤① |⑤---|
④⑥⑨③ |⑥⑦⑧⑨|
口⑧⑦口 |⑩---|
14
④口口口 |①---|
口③①① |②---|
②②⑤口 |③-④-|
口口口⑥ |⑤-⑥-|
15
口⑥⑥① |①-②-|
口口②口 |③-④-|
口③口口 |⑤---|
④⑤⑤口 |⑥---|
16
口口口④ |①---|
①①③口 |②---|
口⑤②② |③-④-|
⑥口口口 |⑤-⑥-|
17
口口口口 |①②③④|
②⑩⑤① |⑤---|
④⑥⑨③ |⑥⑦⑧⑨|
口⑧⑦口 |⑩---|
18
口①⑥⑥ |①-②-|
②口口口 |③-④-|
口口口③ |⑤---|
⑤⑤④口 |⑥---|
19
口③⑧口 |①②③-|
⑦口④⑧ |④-⑤-|
①口口⑥ |⑥-⑦-|
口⑤口② |⑧---|
20
⑤口口⑥ |①-②-|
口⑦⑦口 |③-④-|
③口口④ |⑤-⑥-|
①口口② |⑦---|
21
⑩⑩⑩⑩ |①-②-③-|
⑦⑧口⑨ |④-⑤-⑥-|
④⑤口⑥ |⑦-⑧-⑨-|
①②口③ |⑩---|
22
口口口口 |①-②-|
⑥口②口 |③-④-|
③口口口 |⑤---|
①⑤⑥④ |⑥---|
23
⑩⑨⑧⑦ |①②③④|
⑪②①⑥ |⑤⑥⑦⑧|
⑫③④⑤ |⑨⑩⑪⑫|
⑬⑭⑮⑯ |⑬⑭⑮⑯|
24
⑦③口⑦ |①-②-|
口口⑥② |③-④-|
口①④口 |⑤-⑥-|
⑤口口口 |⑦---|
25
③②②③ |①---|
②③③② |②---|
①④④① |③---|
④①①④ |④---|
26
口①⑥⑥ |①-②-|
②口口口 |③-④-|
口口口③ |⑤---|
⑤⑤④口 |⑥---|
27
口③⑧口 |①②③-|
⑦口④⑧ |④-⑤-|
①口口⑥ |⑥-⑦-|
口⑤口② |⑧---|
28
⑤口口⑥ |①-②-|
口⑦⑦口 |③-④-|
③口口④ |⑤-⑥-|
①口口② |⑦---|
29
⑩⑩⑩⑩ |①-②-③-|
⑦⑧口⑨ |④-⑤-⑥-|
④⑤口⑥ |⑦-⑧-⑨-|
①②口③ |⑩---|
30
口口口口 |①-②-|
⑥口②口 |③-④-|
③口口口 |⑤---|
①⑤⑥④ |⑥---|
31
⑩⑨⑧⑦ |①②③④|
⑪②①⑥ |⑤⑥⑦⑧|
⑫③④⑤ |⑨⑩⑪⑫|
⑬⑭⑮⑯ |⑬⑭⑮⑯|
32
口⑧⑧④ |①-②-|
口③口② |③-④-|
⑤①口⑥ |⑤-⑥-|
口⑦⑦口 |⑦-⑧-|
33
③口口③ |①---|
口②②口 |②---|
⑤①①⑤ |③-④-|
口④④口 |⑤---|
34
⑤口③④ |①-②-|
①②口口 |③-④-|
⑥口③⑤ |⑤---|
①⑦口口 |⑥-⑦-|
35
④③口④ |①-②-|
口口②① |③-④-|
⑤③口⑥ |--⑤-|
口⑦⑦① |⑥-⑦-|
36
⑤口③④ |①-②-|
①②口口 |③-④-|
⑥口③⑤ |⑤---|
①⑦口口 |⑥-⑦-|
37
④③口④ |①-②-|
口口②① |③-④-|
⑤③口⑥ |--⑤-|
口⑦⑦① |⑥-⑦-|
38
⑤口③④ |①-②-|
①②口口 |③-④-|
⑥口③⑤ |⑤---|
①⑦口口 |⑥-⑦-|
39
④③口④ |①-②-|
口口②① |③-④-|
⑤③口⑥ |--⑤-|
口⑦⑦① |⑥-⑦-|
40
⑥①①⑧ |①-②-|
②③③② |③-④-|
⑦④④⑤ |⑤-⑥-|
②口口② |⑦-⑧-|
41
⑤⑥①口 |①-②-|
②口⑦⑧ |③-④-|
⑨⑩口③ |⑤⑥⑦⑧|
口④⑪⑫ |⑨⑩⑪⑫|
42
口口口④ |①---|
①①③口 |②---|
口⑤②② |③-④-|
⑥口口口 |⑤-⑥-|
43
①⑥⑥口 |①-②-|
口②口口 |③-④-|
口口③口 |⑤---|
口⑤⑤④ |⑥---|
44
④口口口 |①---|
口③①① |②---|
②②⑤口 |③-④-|
口口口⑥ |⑤-⑥-|
45
口口口口 |①②③④|
②⑩⑤① |⑤---|
④⑥⑨③ |⑥⑦⑧⑨|
口⑧⑦口 |⑩---|
46
④口口口 |①---|
口③①① |②---|
②②⑤口 |③-④-|
口口口⑥ |⑤-⑥-|
47
口⑥⑥① |①-②-|
口口②口 |③-④-|
口③口口 |⑤---|
④⑤⑤口 |⑥---|
48
口口口口 |①---|
①①口口 |②---|
口口②② |③-④-|
⑥④③⑤ |⑤-⑥-|
49
①②③④ |①②③④|
⑧⑦⑥⑤ |⑤⑥⑦⑧|
⑨⑩⑪⑫ |⑨⑩⑪⑫|
⑯⑮⑭⑬ |⑬⑭⑮⑯|
50
②口口① |①-②-|
④口口③ |③-④-|
口口口口
口口口口

口口⑦⑦
口口口口
口⑥⑤口 |⑤-⑥-|
口口口口 |⑦---|
51
口③⑧口 |①②③-|
⑦口④⑧ |④-⑤-|
①口口⑥ |⑥-⑦-|
口⑤口② |⑧---|
52
⑤口口⑥ |①-②-|
口⑦⑦口 |③-④-|
③口口④ |⑤-⑥-|
①口口② |⑦---|
53
⑩⑩⑩⑩ |①-②-③-|
⑦⑧口⑨ |④-⑤-⑥-|
④⑤口⑥ |⑦-⑧-⑨-|
①②口③ |⑩---|
54
口口口口 |①-②-|
⑥口②口 |③-④-|
③口口口 |⑤---|
①⑤⑥④ |⑥---|
55
⑩⑨⑧⑦ |①②③④|
⑪②①⑥ |⑤⑥⑦⑧|
⑫③④⑤ |⑨⑩⑪⑫|
⑬⑭⑮⑯ |⑬⑭⑮⑯|
56
⑦③口⑦ |①-②-|
口口⑥② |③-④-|
口①④口 |⑤-⑥-|
⑤口口口 |⑦---|
57
③②②③ |①---|
②③③② |②---|
①④④① |③---|
④①①④ |④---|
58
口①⑥⑥ |①-②-|
②口口口 |③-④-|
口口口③ |⑤---|
⑤⑤④口 |⑥---|
59
口③⑧口 |①②③-|
⑦口④⑧ |④-⑤-|
①口口⑥ |⑥-⑦-|
口⑤口② |⑧---|
60
⑤口口⑥ |①-②-|
口⑦⑦口 |③-④-|
③口口④ |⑤-⑥-|
①口口② |⑦---|
61
⑩⑩⑩⑩ |①-②-③-|
⑦⑧口⑨ |④-⑤-⑥-|
④⑤口⑥ |⑦-⑧-⑨-|
①②口③ |⑩---|
62
⑦口⑥口 |①-②-|
⑦口②口 |③-④-|
③口口口 |⑤-⑥-|
①⑤口④ |⑦---|
63
⑩⑨⑧⑦ |①②③④|
⑪②①⑥ |⑤⑥⑦⑧|
⑫③④⑤ |⑨⑩⑪⑫|
⑬⑭⑮⑯ |⑬⑭⑮⑯|
64
④③口口 |①-②-|
口口口口 |③-④-|
口②口①
口口口口

口口⑥⑤
⑧⑦口口
口口⑩⑨ |⑤⑥⑦⑧|
⑫⑪口口 |⑨⑩⑪⑫|
65
口口口② |①---|
口口口口 |②---|
口口口口
口口口①

③④口口
口口⑤⑥
⑦⑧口口 |③④⑤⑥|
口口⑨⑩ |⑦⑧⑨⑩|
66
⑤口③④ |①-②-|
①②口口 |③-④-|
⑥口③⑤ |⑤---|
①⑦口口 |⑥-⑦-|
67
④③口④ |①-②-|
口口②① |③-④-|
⑤③口⑥ |--⑤-|
口⑦⑦① |⑥-⑦-|
68
⑤口③④ |①-②-|
①②口口 |③-④-|
⑥口③⑤ |⑤---|
①⑦口口 |⑥-⑦-|
69
④③口④ |①-②-|
口口②① |③-④-|
口③口口
口口口①

口口口口
口口口口
口口口口 |--⑤-|
口⑤⑤⑥ |--⑥-|
70
⑤口③④ |①-②-|
①②口口 |③-④-|
⑥口③⑤ |⑤---|
①⑦口口 |⑥-⑦-|
71
④③口④ |①-②-|
口口②① |③-④-|
⑤③口⑥ |--⑤-|
口⑦⑦① |⑥-⑦-|
72
口①①口 |①-②-|
②③③② |③-④-|
口④④口
②口口②

⑥口口⑤
口口口口
⑦口口⑦ |⑤-⑥-|
⑧⑨口口 |⑦-⑧⑨|
73
口⑥⑤口 |①②③-|
口口口口 |④-⑤⑥|
口④③口
口口①②

口口口口
⑦⑧⑨⑩
口口口口 |⑦⑧⑨⑩|
⑪⑫⑬⑭ |⑪⑫⑬⑭|
74
②⑤⑤① |①---|
口③③口 |②---|
③④④③ |③-④-|
⑥口口⑥ |⑤-⑥-|
75
口口口口 |----|
口口口口 |----|
①②③④ |①②③④|
口口口口 |----|


不确定度: 0

最終更新:2012年11月08日 18:23