轟け!恋のビーンボール!!
ダイナミック野球兄弟 v.s. クロスファイヤーPrim

BASIC

Level: 4
BPM: 180
Notes: 292

1
口口口口 |----|
口口口口 |----|
口口口口 |----|
口口口口 |----|
2
口口口口 |----|
口口①口 |----|
口口口口 |----|
口口口口 |①---|
3
口口口口 |①---|
口①②口 |----|
口口口口 |----|
口口口口 |②---|
4
口口口口 |①---|
口①②口 |----|
口口口口 |----|
口口口口 |②---|
5
口口口口 |①---|
口①口口 |----|
口口③② |②---|
口口口口 |③---|
6
口口口口 |①---|
口口口口 |----|
口①口口 |----|
口口口口 |----|
7
口②①口 |①---|
口④③口 |②---|
口口口口 |③---|
口口口口 |④---|
8
口口口口 |①---|
口口口口 |②---|
口②①口 |③---|
口口③口 |----|
9
口口口口 |①---|
口口口口 |②---|
③口口④ |③---|
①口口② |④---|
10
③口口④ |①---|
①口口② |②---|
口口口口 |③---|
口口口口 |④---|
11
口①①口 |①---|
口②②口 |----|
口口口口 |②---|
口口口口 |----|
12
口口口口 |①---|
口口口口 |----|
口①①口 |②---|
口②②口 |----|
13
口②①口 |①---|
口④③口 |②---|
口口口口 |③---|
口口口口 |④---|
14
口口口口 |①---|
口口口口 |②---|
口②①口 |③---|
口④③口 |④---|
15
②口口① |①---|
④口口③ |②---|
口口口口 |③---|
口口口口 |④---|
16
口口口口 |①---|
口口口口 |②---|
②口口① |③---|
④口口③ |④---|
17
口口口口 |①---|
口口口口 |②---|
口④③口 |③---|
口②①口 |④---|
18
口②②口 |----|
口①①口 |①---|
口口口口 |②---|
口口口口 |----|
19
口口口口 |①---|
口口口口 |----|
口②①口 |②---|
口口口口 |----|
20
口口口口 |①---|
口③②① |②---|
口口口口 |③---|
口口口口 |----|
21
口口口口 |①---|
口口口口 |②---|
④③②① |③---|
口口口口 |④---|
22
②③口口 |①---|
①口④口 |②---|
口口口口 |③---|
口口口口 |④---|
23
口口口口 |①---|
口①口口 |----|
口②②口 |②---|
口口口口 |----|
24
口口口口 |①---|
口③②① |②---|
口口口口 |③---|
口口口口 |----|
25
口口口口 |①---|
口②②口 |----|
口①①口 |②---|
口口口口 |----|
26
口口口④ |①---|
口口口③ |②---|
口口口② |③---|
口口口① |④---|
27
口口口口 |①---|
口口口口 |----|
口②①口 |②---|
口口口口 |----|
28
口口口口 |①---|
口③②① |②---|
口口口口 |③---|
口口口口 |----|
29
口口口口 |①---|
口口口口 |②---|
④③②① |③---|
口口口口 |④---|
30
②③口口 |①---|
①口④口 |②---|
口口口口 |③---|
口口口口 |④---|
31
口口口口 |①---|
口①口口 |----|
口②②口 |②---|
口口口口 |----|
32
口口口口 |①---|
③口口口 |②---|
②口口口 |③---|
①口口口 |----|
33
口口口口 |①---|
口口口口 |②---|
口④③口 |③---|
口②①口 |④---|
34
口④③口 |①---|
口②①口 |②---|
口口口口 |③---|
口口口口 |④---|
35
口口口口 |①---|
②口口① |②---|
④口口③ |③---|
口口口口 |④---|
36
口口口口 |①---|
口③③口 |②---|
口②②口 |③---|
口①①口 |----|
37
口口口口 |①---|
②口口① |②---|
④口口③ |③---|
口口口口 |④---|
38
口③③口 |①---|
口②②口 |②---|
口①①口 |③---|
口口口口 |----|
39
口口口口 |①---|
②口口① |②---|
④口口③ |③---|
口口口口 |④---|
40
口口口口 |①---|
口③③口 |②---|
口②②口 |③---|
口①①口 |----|
41
口口口口 |①---|
②口口① |②---|
④口口③ |③---|
口口口口 |④---|
42
口③③口 |①---|
口②②口 |②---|
口①①口 |③---|
口口口口 |----|
43
口口口口 |①---|
④③②① |②---|
口口口口 |③---|
口口口口 |④---|
44
口口口口 |①---|
口口口口 |②---|
④③②① |③---|
口口口口 |④---|
45
口口口口 |①---|
口口口口 |②---|
④口口③ |③---|
②口口① |④---|
46
口口口③ |①---|
②口口① |②---|
口口口口 |③---|
口口口口 |----|
47
④口口口 |①---|
口③②① |②---|
口口口口 |③---|
口口口口 |④---|
48
口口口口 |①---|
口口口口 |②---|
口③②① |③---|
④口口口 |④---|
49
口口口口 |①---|
口②①口 |----|
口口口口 |②---|
口口口口 |----|
50
口口口口 |①---|
口口口口 |----|
口②①口 |②---|
口口口口 |----|
51
口②①口 |①-②-|
口④③口 |----|
口口口口 |③-④-|
口口口口 |----|
52
口口口口 |①-②-|
口口口口 |----|
口②①口 |③-④-|
口④③口 |----|
53
口口①口 |①---|
口②口口 |②---|
口口③口 |③---|
口④口口 |④---|
54
口①口口 |①---|
口口②口 |②---|
口③口口 |③---|
口口④口 |④---|
55
③④②① |①---|
口口口口 |②---|
口口口口 |③---|
口口口口 |④---|
56
口口口口 |①---|
③④②① |②---|
口口口口 |③---|
口口口口 |④---|
57
口口口口 |①---|
口口口口 |②---|
③④②① |③---|
口口口口 |④---|
58
口口口口 |①---|
口④口③ |②---|
口口口② |③---|
口口口① |④---|
59
口口口口 |①---|
口口①口 |----|
②③口口 |②---|
口口口口 |③---|
60
口口口口 |①---|
口口口③ |②---|
口口①② |③---|
口口口口 |----|
61
口口口口 |①---|
口口口口 |②---|
口④③口 |③---|
口②①口 |④---|
62
口口口口 |①---|
口口①口 |----|
口口口口 |----|
口口口口 |----|
63
③④②① |①---|
口口口口 |②---|
口口口口 |③---|
口口口口 |④---|
64
口口口口 |①---|
③④②① |②---|
口口口口 |③---|
口口口口 |④---|
65
口口口口 |①---|
口口口口 |②---|
③④②① |③---|
口口口口 |④---|
66
口口口口 |①---|
口口口③ |②---|
口口口② |③---|
口口口① |----|
67
口①①口 |①---|
口②②口 |----|
口口口口 |②---|
口口口口 |----|
68
口口口口 |①---|
口口口口 |----|
口①①口 |②---|
口②②口 |----|
69
口口口口 |①---|
口口口口 |②---|
④口口③ |③---|
②口口① |④---|
70
口口口口 |①---|
口③③① |----|
口②②口 |②---|
口口口口 |③---|
71
口①①口 |①---|
口口③口 |----|
口②口口 |②---|
口口口口 |③---|
72
口口口口 |①---|
口①③口 |----|
口②口口 |②---|
口口口口 |③---|
73
口口口口 |①---|
口①口口 |----|
口口③② |②---|
口口口口 |③---|
74
口口口口 |①---|
口口口口 |----|
口①口口 |----|
口口口口 |----|
75
口②①口 |①---|
口④③口 |②---|
口口口口 |③---|
口口口口 |④---|
76
口口口口 |①---|
口口口口 |②---|
口②①口 |③---|
口④③口 |④---|
77
口口口口 |①---|
口口口口 |②---|
④口口③ |③---|
②口口① |④---|
78
口口口口 |①---|
口口②① |----|
口口口口 |②---|
口口口口 |----|
79
口口口口 |①---|
②①口口 |----|
口口口口 |②---|
口口口口 |----|
80
口口口口 |①---|
④③②① |②---|
口口口口 |③---|
口口口口 |④---|
81
口口口口 |①---|
口口口口 |②---|
④③②① |③---|
口口口口 |④---|
82
口口口⑤ |①---|
口②①口 |②---|
口④③口 |③---|
口口口口 |④-⑤-|

不確定度: 0

最終更新:2014年07月27日 02:30