HYENA
Hommarju

BASIC

Level: 4
BPM: 178
Notes: 267

1
口口口口 |----|
口口口口 |----|
口口口口 |----|
口口口口 |----|
2
口口口口 |①---|
①口口① |----|
口口口口 |----|
口口口口 |----|
3
口口口口 |----|
口口口口 |①---|
口①①口 |----|
口口口口 |----|
4
口口口口 |①---|
①口口① |----|
口口口口 |----|
口口口口 |----|
5
口口口口 |----|
口口①口 |①---|
口②口口 |②---|
口口口口 |----|
6
口口口口 |①---|
①口口① |----|
口口口口 |----|
口口口口 |----|
7
口口口口 |----|
口口口口 |①---|
口①①口 |----|
口口口口 |----|
8
口口口口 |①---|
①口口① |----|
口口口口 |----|
口口口口 |----|
9
口口口口 |----|
口口①口 |①---|
口②口口 |②---|
口口口口 |----|
10
口口口口 |①---|
①口口① |----|
②口口口 |----|
口口口口 |②---|
11
口口口口 |①---|
口口口口 |②---|
口④④口 |③---|
①②③口 |④---|
12
口口口口 |①---|
①口口① |----|
口口口② |----|
口口口口 |②---|
13
口口口口 |①---|
口口口口 |②---|
口④④口 |③---|
口③②① |④---|
14
口口口口 |①---|
①口口① |----|
②口口口 |----|
口口口口 |②---|
15
口口口口 |①---|
口口口口 |②---|
口④④口 |③---|
①②③口 |④---|
16
口口口口 |①---|
①口口① |----|
口口口② |----|
口口口口 |②---|
17
口口口口 |①---|
口口口口 |②---|
口④④口 |③---|
口③②① |④---|
18
口口口口 |①---|
①口口① |----|
口口口口 |----|
口口口口 |----|
19
口口口口 |----|
口口①口 |①---|
口②口口 |②---|
口口口口 |----|
20
口口口口 |①---|
口口口口 |----|
口口口② |②---|
口口口① |----|
21
口口②口 |①---|
口口口① |----|
口口口口 |②---|
口口口口 |----|
22
口口口口 |①---|
口口口口 |----|
②口口口 |②---|
①口口口 |----|
23
口②口口 |①---|
①口口口 |----|
口口口口 |②---|
口口口口 |----|
24
口口口口 |①---|
口口口口 |----|
口口②口 |②---|
口口①口 |----|
25
口口口② |①---|
口口①口 |----|
口口口口 |②---|
口口口口 |----|
26
口口口口 |①---|
口口口口 |----|
口②口口 |②---|
口①口口 |----|
27
②口口口 |①---|
口①口口 |----|
口口口口 |②---|
口口口口 |----|
28
口口口口 |①---|
口口①① |----|
口③②口 |②---|
口口口口 |③---|
29
口口口口 |①---|
口口口口 |②---|
③口口③ |③---|
口②①口 |----|
30
口口口口 |①---|
①①口口 |----|
口②③口 |②---|
口口口口 |③---|
31
口口口口 |①---|
口口口口 |②---|
③口口③ |③---|
口①②口 |----|
32
口口口口 |①---|
口口①① |----|
口③②口 |②---|
口口口口 |③---|
33
口口口口 |①---|
口口口口 |②---|
口口口口 |③---|
④②①③ |④---|
34
口口口口 |①---|
④口口③ |②---|
②口口① |③---|
口口口口 |④---|
35
②口口① |①---|
口③③口 |②---|
口口口口 |③---|
口口口口 |----|
36
口口口口 |①---|
①口口① |----|
口口口口 |----|
口口口口 |----|
37
口口口口 |----|
口口①口 |①---|
口②口口 |②---|
口口口口 |----|
38
口口口② |①---|
口口④③ |②---|
口口口① |③---|
口口口口 |④---|
39
口③③口 |①---|
②①口口 |②---|
口口口口 |③---|
口口口口 |----|
40
②口口口 |①---|
③④口口 |②---|
①口口口 |③---|
口口口口 |④---|
41
口③③口 |①---|
口口①② |②---|
口口口口 |③---|
口口口口 |----|
42
口口口② |①---|
口口④③ |②---|
口口口① |③---|
口口口口 |④---|
43
口口口口 |①---|
②①口口 |②---|
③④口口 |③---|
口口口口 |④---|
44
口口口口 |①---|
口口④③ |②---|
口口①② |③---|
口口口口 |④---|
45
口③③口 |①---|
②①口口 |②---|
口口口口 |③---|
口口口口 |----|
46
口口口口 |①---|
口口①口 |----|
口口②口 |②---|
口口口口 |----|
47
口口口口 |①---|
口①口口 |----|
口②口口 |②---|
口口口口 |----|
48
口口口口 |①---|
口口①口 |----|
口口②口 |②---|
口口口口 |----|
49
口口口口 |①---|
口①口口 |----|
口②口口 |②---|
口口口口 |----|
50
口口口口 |①---|
口口①口 |----|
口口②口 |②---|
口口口口 |----|
51
口口口② |①---|
口①口② |----|
口口口口 |②---|
口口口口 |----|
52
①口口口 |①---|
①口口② |----|
口口口② |②---|
口口口口 |----|
53
口口口口 |①---|
①口口口 |----|
①口口口 |②---|
口②②口 |----|
54
口口口口 |①---|
①口口① |----|
①口口① |----|
口口口口 |----|
55
口口口口 |----|
口口口口 |----|
口口口口 |----|
口口口口 |----|
56
口口口口 |①---|
口①①口 |----|
口①①口 |----|
口口口口 |----|
57
口口口口 |----|
口口口口 |----|
口口口口 |----|
口口口口 |----|
58
口口口口 |①---|
①口口① |----|
①口口① |----|
口口口口 |----|
59
口口口口 |----|
口口口口 |----|
口口口口 |----|
口口口口 |----|
60
口口口口 |①---|
口①①口 |----|
口①①口 |----|
口口口口 |----|
61
口口口口 |----|
口口口口 |----|
口口口口 |----|
口口口口 |----|
62
口口口口 |①---|
口口口口 |----|
口口②口 |②---|
①口口① |----|
63
口口②口 |①---|
口③①口 |----|
口口口口 |②---|
口口口口 |③---|
64
口口口口 |①---|
口口口口 |----|
口②口口 |②---|
①口口① |----|
65
口②口口 |①---|
口①③口 |----|
口口口口 |②---|
口口口口 |③---|
66
口口口口 |①---|
口口口口 |----|
口口②口 |②---|
①口口① |----|
67
口口②口 |①---|
口③①口 |----|
口口口口 |②---|
口口口口 |③---|
68
口口口口 |①---|
口口口口 |----|
口②口口 |②---|
①口口① |----|
69
口②口口 |①---|
口①口口 |----|
口口口口 |②---|
口口口口 |----|
70
口口口口 |①---|
①口口① |----|
口口口口 |----|
口口口口 |----|
71
口口口口 |----|
口口①口 |①---|
口②口口 |②---|
口口口口 |----|
72
口④口口 |①---|
口③口口 |②---|
口口口口 |③---|
口口②① |④---|
73
③口①④ |①---|
口口②口 |②---|
口口口口 |③---|
口口口口 |④---|
74
口口④口 |①---|
口口③口 |②---|
口口口口 |③---|
①②口口 |④---|
75
④①口③ |①---|
口②口口 |②---|
口口口口 |③---|
口口口口 |④---|
76
口④口口 |①---|
口③口口 |②---|
口口口口 |③---|
口口②① |④---|
77
③口①④ |①---|
口口②口 |②---|
口口口口 |③---|
口口口口 |④---|
78
口口口口 |①---|
口③④口 |②---|
口①②口 |③---|
口口口口 |④---|
79
③②①口 |①---|
口口口口 |②---|
口口口口 |③---|
口口口口 |----|
80
口④口口 |①---|
口③口口 |②---|
口口口口 |③---|
口口②① |④---|
81
③口①④ |①---|
口口②口 |②---|
口口口口 |③---|
口口口口 |④---|
82
口口④口 |①---|
口口③口 |②---|
口口口口 |③---|
①②口口 |④---|
83
④①口③ |①---|
口②口口 |②---|
口口口口 |③---|
口口口口 |④---|
84
口④口口 |①---|
口③口口 |②---|
口口口口 |③---|
口口②① |④---|
85
③口①④ |①---|
口口②口 |②---|
口口口口 |③---|
口口口口 |④---|
86
口口口口 |①---|
口口口① |②---|
口口口② |③---|
口口④③ |④---|
87
口口口口 |①---|
④口口口 |②---|
③口口口 |③---|
②①口口 |④---|
88
口口口口 |①---|
口①①口 |----|
口①①口 |----|
口口口口 |----|

不確定度: 0

最終更新:2014年07月27日 02:29