HYENA
Hommarju

ADVANCED

Level: 7
BPM: 178
Notes: 547

1
口口口口 |----|
口口口口 |----|
口口口口 |----|
口口口口 |----|
2
口口口口 |①---|
①口口① |----|
①口口① |----|
口口口口 |----|
3
口口口口 |----|
口①①口 |①---|
口口口口 |----|
口口口口 |----|
4
口口口口 |①---|
①口口① |----|
①口口① |----|
口口口口 |----|
5
口口口口 |----|
口口①口 |①---|
口②口口 |②---|
口口口口 |----|
6
口口口口 |①---|
①口口① |----|
①口口① |----|
口口口口 |----|
7
口口口口 |----|
口①①口 |①---|
口口口口 |----|
口口口口 |----|
8
口口口口 |①---|
①口口① |----|
①口口① |----|
口口口口 |----|
9
口口口口 |----|
口口①口 |①---|
口②口口 |②---|
口口口口 |----|
10
④口口口 |①---|
口口口③ |②---|
口口⑤② |③---|
口口①① |④-⑤-|
11
口⑦口② |①-②-|
⑤③口口 |③-④-|
口口口⑥ |⑤-⑥-|
①口口④ |⑦---|
12
口口口口 |①---|
③口口口 |②---|
②⑤口口 |③---|
①①④口 |④-⑤-|
13
④口口① |①-②-|
口⑥③⑤ |③-④-|
口口⑦口 |⑤-⑥-|
②口口口 |⑦---|
14
口④口口 |①---|
口口口③ |②---|
口口⑤② |③---|
口口①① |④-⑤-|
15
⑦口口④ |①-②-|
⑤③口口 |③-④-|
口口口口 |⑤-⑥-|
①口⑥② |⑦---|
16
⑤口口口 |①---|
③口口口 |②---|
②口④口 |③---|
①①口口 |④-⑤-|
17
口口③⑦ |①-②-|
口⑥口① |③-④-|
口④口口 |⑤-⑥-|
②口口⑤ |⑦---|
18
口口口口 |①---|
①口口① |----|
①口口① |----|
口口口口 |----|
19
口口口口 |----|
口口①口 |①---|
口②口口 |②---|
口口口口 |----|
20
④⑤口口 |①---|
口口口口 |②---|
③口口② |③---|
①口口① |④-⑤-|
21
口口②① |①-②-|
③④⑥⑤ |③-④-|
口⑦⑦口 |⑤-⑥-|
口口口口 |⑦---|
22
口口⑤④ |①---|
口口口口 |②---|
②口口③ |③---|
①口口① |④-⑤-|
23
①②口口 |①-②-|
⑤⑥④③ |③-④-|
口⑦⑦口 |⑤-⑥-|
口口口口 |⑦---|
24
④⑤口口 |①---|
口口口口 |②---|
③口口② |③---|
①口口① |④-⑤-|
25
口口②① |①-②-|
③④⑥⑤ |③-④-|
口⑦⑦口 |⑤-⑥-|
口口口口 |⑦---|
26
口口⑤④ |①---|
口口口口 |②---|
②口口③ |③---|
①口口① |④-⑤-|
27
①②口口 |①-②-|
⑤⑥④③ |③-④-|
口口口口 |⑤-⑥-|
口口口口 |----|
28
②口口口 |①---|
⑥口口③ |--②-|
口口⑤口 |③-④-|
①④口① |⑤-⑥-|
29
⑥⑦⑧⑤ |①-②-|
口口③⑤ |③-④-|
④②口口 |⑤-⑥-|
口口口① |⑦-⑧-|
30
口口口④ |①---|
③口口口 |--②-|
口⑤②口 |③-④-|
①口⑥① |⑤-⑥-|
31
⑤⑧⑦⑥ |①-②-|
⑤口④② |③-④-|
③口口口 |⑤-⑥-|
①口口口 |⑦-⑧-|
32
②口口口 |①---|
口⑥③口 |--②-|
口口口⑤ |③-④-|
①④口① |⑤-⑥-|
33
⑥口①口 |①-②-|
⑥口⑤⑦ |③-④-|
②⑧口口 |⑤-⑥-|
④口③口 |⑦-⑧-|
34
口④口③ |①-②-|
⑧②⑦口 |③-④-|
口口⑤① |⑤-⑥-|
⑥口口① |⑦-⑧-|
35
⑥⑦⑧⑤ |①-②-|
口④口⑤ |③-④-|
②口口③ |⑤-⑥-|
口口①口 |⑦-⑧-|
36
口口口口 |①---|
口口口口 |----|
口口口口 |----|
①口口① |----|
37
口口口口 |----|
口口①口 |①---|
口②口口 |②---|
口口口口 |----|
38
口⑥口③ |①---|
②口口口 |--②-|
口口⑤口 |③-④-|
①④口① |⑤-⑥-|
39
⑥⑦⑧⑤ |①-②-|
④口口⑤ |③-④-|
口口口① |⑤-⑥-|
②口③口 |⑦-⑧-|
40
口口口口 |①---|
口口②口 |--②-|
口口口口
①口口①

口⑤口口
口口口口
口口口④ |③-④-|
口③口⑥ |⑤-⑥-|
41
⑤⑧⑦⑥ |①-②-|
⑤口口② |③-④-|
①③口口 |⑤-⑥-|
口口④口 |⑦-⑧-|
42
口口口口 |①---|
口口口口 |--②-|
口口口口
①②口①

④口口口
口口口③
口口⑤口 |③-④-|
⑥口口口 |⑤-⑥-|
43
⑥②③口 |①-②-|
⑥口①口 |③-④-|
④口口⑦ |⑤-⑥-|
口⑧口⑤ |⑦-⑧-|
44
⑥口⑤① |①-②-|
口②口① |③-④-|
④口⑦口 |⑤-⑥-|
口⑧③口 |⑦-⑧-|
45
⑥⑦⑧⑤ |①-②-|
口②口⑤ |③-④-|
④口口口 |⑤-⑥-|
口口③① |⑦-⑧-|
46
②口口② |①---|
口口口口 |----|
口口口口 |②---|
①口口① |----|
47
口口口口 |①---|
口①①口 |----|
口②②口 |②---|
口口口口 |----|
48
①口口① |①---|
口口口口 |----|
口口口口 |②---|
②口口② |----|
49
口口①① |①---|
②②口口 |②---|
口口③③ |③---|
口口口口 |----|
50
①口口① |①---|
口口口口 |----|
口口口口 |②---|
②口口② |----|
51
口口口③ |①---|
①①口口 |②---|
口口②② |③---|
③口口口 |----|
52
①口口② |①---|
口口口口 |----|
口口口口 |②---|
②口口① |----|
53
①口口② |①---|
口口口口 |----|
口口口口 |②---|
②口口① |----|
54
口⑧⑦口 |①-②-|
口⑥⑤口 |③-④-|
口④③口 |⑤-⑥-|
口②①口 |⑦-⑧-|
55
②口口① |①-②-|
④口口③ |③-④-|
⑥口口⑤ |⑤-⑥-|
口口口⑦ |⑦---|
56
①口口② |①-②-|
③口口④ |③-④-|
⑤口口⑥ |⑤-⑥-|
⑦口口⑧ |⑦-⑧-|
57
口⑦口口 |①-②-|
口⑤⑥口 |③-④-|
口③④口 |⑤-⑥-|
口①②口 |⑦---|
58
口⑧⑦口 |①-②-|
口⑥⑤口 |③-④-|
口④③口 |⑤-⑥-|
口②①口 |⑦-⑧-|
59
②口口① |①-②-|
④口口③ |③-④-|
口口口⑤ |⑤---|
口口口口 |----|
60
①口口② |①-②-|
③口口④ |③-④-|
⑤口口⑥ |⑤-⑥-|
⑦口口⑧ |⑦-⑧-|
61
口⑦口口 |①-②-|
口⑤⑥口 |③-④-|
口③④口 |⑤-⑥-|
口①②口 |⑦---|
62
口口口口 |①---|
口②②口 |----|
口③③口 |②---|
①口口① |③---|
63
②口口② |①---|
口口口口 |----|
口④③口 |②---|
口①①口 |③-④-|
64
口口口口 |①---|
口②②口 |----|
口③③口 |②---|
①口口① |③---|
65
②口口② |①---|
口口口口 |----|
口③④口 |②---|
口①①口 |③-④-|
66
口口口口 |①---|
口②②口 |----|
口③③口 |②---|
①口口① |③---|
67
②口口② |①---|
口口口口 |----|
口④③口 |②---|
口①①口 |③-④-|
68
口口口口 |①---|
口②②口 |----|
口③③口 |②---|
①口口① |③---|
69
③口口③ |①---|
口口口口 |②---|
口④④口 |③---|
②①①② |④---|
70
口口口口 |①---|
①口口① |----|
①口口① |----|
口口口口 |----|
71
口口口口 |----|
口口①口 |①---|
口②口口 |②---|
口口口口 |----|
72
⑦口口⑤ |①-②-|
②④③① |③-④-|
⑥口口⑧ |⑤-⑥-|
口口口口 |⑦-⑧-|
73
口①①口 |--①-|
②口口② |--②-|
口口口口 |③---|
④③③④ |④---|
74
⑦③②口 |①-②-|
⑧⑤④口 |③-④-|
①口⑥① |⑤-⑥-|
口口口口 |⑦-⑧-|
75
口②口① |--①-|
口口口口 |--②-|
口口③口 |③---|
口口口口 |----|
76
⑦口口⑤ |①-②-|
②④③① |③-④-|
⑥口口⑧ |⑤-⑥-|
口口口口 |⑦-⑧-|
77
口①①口 |--①-|
②口口② |--②-|
口④④口 |③-④-|
口③③口 |----|
78
⑦③②口 |①-②-|
口⑤④⑧ |③-④-|
①口⑥① |⑤-⑥-|
口口口口 |⑦-⑧-|
79
口⑥⑥④ |①-②-|
口口口口 |③-④-|
口③口口 |⑤-⑥-|
⑤①口② |----|
80
⑤口口⑦ |①-②-|
①③④② |③-④-|
⑧口口⑥ |⑤-⑥-|
口口口口 |⑦-⑧-|
81
口①①口 |--①-|
②口口② |--②-|
口口口口 |③---|
④③③④ |④---|
82
口②③⑦ |①-②-|
口④⑤⑧ |③-④-|
①⑥口① |⑤-⑥-|
口口口口 |⑦-⑧-|
83
①口②口 |--①-|
口口口口 |--②-|
口③口口 |③-④-|
口④④口 |----|
84
⑤口口⑦ |①-②-|
①③④② |③-④-|
⑧口口⑥ |⑤-⑥-|
口口口口 |⑦-⑧-|
85
口①①口 |--①-|
②口口② |--②-|
口④④口 |③-④-|
口③③口 |----|
86
⑧口①⑤ |①-②-|
口④口口 |③-④-|
②口⑦口 |⑤-⑥-|
⑥口口③ |⑦-⑧-|
87
口⑥⑥口 |①-②-|
口口⑤① |③-④-|
②口口口 |⑤-⑥-|
口④口③ |----|
88
口口口口 |①---|
①口口① |----|
①口口① |----|
口口口口 |----|

不確定度: 0

最終更新:2014年07月27日 02:29