PUNISHER
TAG×PON

BASIC

Level: 4
BPM: 180
Notes: 336

1
口口口口 |----|
口口口口 |----|
口口口口 |----|
口口口口 |----|
2
口口口口 |①---|
口①①口 |----|
口①①口 |----|
口口口口 |----|
3
口口口口 |①---|
①口口① |----|
①口口① |----|
口口口口 |----|
4
①①①① |①---|
口口口口 |----|
口口口口 |----|
口口口口 |----|
5
口口口口 |----|
口口口口 |----|
口口口口 |----|
口口口口 |----|
6
口口口口 |----|
口口口口 |----|
口口口口 |----|
口口口口 |----|
7
口口口口 |----|
口口口口 |----|
口口口口 |----|
口口口口 |----|
8
①口口① |①---|
③口口③ |②---|
②口口② |③---|
④口口④ |④---|
9
口①①口 |①---|
口③③口 |②---|
口②②口 |③---|
口④④口 |④---|
10
①口口① |①---|
③口口③ |②---|
②口口② |③---|
④口口④ |④---|
11
②口口② |①---|
口口口口 |②---|
口①①口 |----|
口口口口 |----|
12
口口口口 |①---|
①口口④ |②---|
口口口口 |③---|
口②③口 |④---|
13
④口口① |①---|
口口口口 |②---|
口③②口 |③---|
口口口口 |④---|
14
口口口口 |①---|
口②③口 |②---|
①口口④ |③---|
口口口口 |④---|
15
口口口口 |①---|
④口口① |②---|
口③②口 |③---|
口口口口 |④---|
16
口②③口 |①---|
口口口口 |②---|
①口口④ |③---|
口口口口 |④---|
17
口口口口 |①---|
口③②口 |②---|
口口口口 |③---|
④口口① |④---|
18
口口③口 |①---|
①口口口 |②---|
口②口④ |③---|
口口口口 |④---|
19
口③口口 |①---|
口口口① |②---|
④口②口 |③---|
口口口口 |④---|
20
口口口口 |①---|
口②口口 |----|
口口口口 |②---|
口口①口 |----|
21
口口口口 |①---|
口口口① |----|
口口口口 |②---|
口②口口 |----|
22
口口口口 |①---|
口口口口 |----|
口②②口 |②---|
①口口① |----|
23
①口口② |①---|
口口口口 |②---|
口口口口 |----|
口口口口 |----|
24
口口口口 |①---|
口②口口 |----|
口口①口 |②---|
口口口口 |----|
25
口口①口 |①---|
口口口口 |----|
②口口口 |②---|
口口口口 |----|
26
口口口口 |①---|
口口口口 |----|
口②②口 |②---|
口①①口 |----|
27
口口口口 |①---|
①口口② |②---|
口口口口 |----|
口口口口 |----|
28
①①口口 |①---|
②②口口 |----|
口口口口 |②---|
口口口口 |----|
29
口口口口 |①---|
口口口口 |----|
①①口口 |----|
口口口口 |----|
30
口口口口 |①---|
③口口口 |②---|
口口口口 |③---|
口①②口 |----|
31
口口口③ |①---|
口口口口 |②---|
口②①口 |③---|
口口口口 |----|
32
口①②口 |①---|
口③④口 |②---|
口口口口 |③---|
口口口口 |④---|
33
口口口口 |①---|
口口口口 |②---|
①口口② |③---|
口③口口 |----|
34
口口口口 |①---|
口口口③ |②---|
口②①口 |③---|
口口口口 |----|
35
③口口口 |①---|
口①②口 |②---|
口口口口 |③---|
口口口口 |----|
36
口①①口 |①---|
口口口口 |----|
口口口口 |----|
口口口口 |----|
37
口口口口 |①---|
口①①口 |----|
口口口口 |----|
口口口口 |----|
38
口口口口 |①---|
口口口口 |----|
口①①口 |②---|
口②②口 |----|
39
口口口口 |①---|
②口口② |----|
①口口① |②---|
口口口口 |----|
40
①①①① |①---|
口口口口 |----|
口口口口 |----|
口口口口 |----|
41
口口口口 |----|
口口口口 |----|
口口口口 |----|
口口①口 |①---|
42
口口口口 |①---|
口口口口 |----|
①①②② |②---|
口口口口 |----|
43
①口口① |①---|
口②③口 |②---|
口口口口 |③---|
口口口口 |----|
44
口口口口 |①---|
口口口口 |----|
②②①① |②---|
口口口口 |----|
45
口口口口 |①---|
①口口① |②---|
口口口口 |③---|
口②③口 |----|
46
口口口口 |①---|
口口口口 |----|
①①②② |②---|
口口口口 |----|
47
③口口口 |①---|
口①②口 |②---|
口口口口 |③---|
口口口口 |----|
48
口①①口 |①---|
②口口② |----|
口口口口 |②---|
口口口口 |----|
49
口口口口 |①---|
口口口口 |②---|
③③④④ |③---|
①①②② |④---|
50
③③④④ |①---|
①①②② |②---|
口口口口 |③---|
口口口口 |④---|
51
口口口口 |①---|
口口口口 |----|
口①①口 |----|
口口口口 |----|
52
口口口口 |----|
口口口口 |----|
口口口口 |----|
口口口口 |----|
53
口口口口 |----|
口口口口 |----|
口口口口 |----|
口口口口 |----|
54
口口口口 |----|
口口口口 |----|
口口口口 |----|
口口口口 |----|
55
①口口口 |①---|
口②口口 |②---|
口口③口 |③---|
口口口④ |④---|
56
口口口④ |①---|
③口口口 |②---|
口口口② |③---|
①口口口 |④---|
57
口①口口 |①---|
口口②口 |②---|
口③口口 |③---|
口口④口 |④---|
58
口口④口 |①---|
口③口口 |②---|
口口②口 |③---|
口①口口 |④---|
59
①口口口 |①---|
口口口② |②---|
③口口口 |③---|
口口口④ |④---|
60
口④④口 |①---|
口③③口 |②---|
口②②口 |③---|
口①①口 |④---|
61
①口口① |①---|
口口口口 |----|
口口口口 |----|
口口口口 |----|
62
口口口口 |----|
口口口口 |----|
口口口口 |----|
口口口口 |----|
63
口口口口 |①---|
②①①② |----|
②①①② |②---|
口口口口 |----|
64
口口口口 |①---|
口口口口 |----|
口口口口 |----|
①口口① |----|
65
口口口口 |①---|
②①①② |----|
②①①② |②---|
口口口口 |----|
66
口口口口 |①---|
口口口口 |----|
口口口口 |----|
口①①口 |----|
67
口口口口 |①---|
口口口口 |②---|
③口口④ |③---|
①口口② |④---|
68
③口口④ |①---|
①口口② |②---|
口口口口 |③---|
口口口口 |④---|
69
口口口口 |①---|
口口口口 |②---|
口③④口 |③---|
口①②口 |④---|
70
①①口口 |①---|
口口②② |----|
口口口口 |②---|
口口口口 |----|
71
①口口① |①---|
口②③口 |②---|
口口口口 |③---|
口口口口 |----|
72
口口口口 |①---|
口口口口 |----|
②②①① |②---|
口口口口 |----|
73
口口口口 |①---|
①口口① |②---|
口口口口 |③---|
口②③口 |----|
74
口口口口 |①---|
口口口口 |----|
①①②② |②---|
口口口口 |----|
75
③口口口 |①---|
口①②口 |②---|
口口口口 |③---|
口口口口 |----|
76
口①①口 |①---|
②口口② |----|
口口口口 |②---|
口口口口 |----|
77
口口口口 |①---|
口口口口 |②---|
③③④④ |③---|
①①②② |④---|
78
③③④④ |①---|
①①②② |②---|
口口口口 |③---|
口口口口 |④---|
79
口口口口 |①---|
口口口口 |②---|
①口口④ |③---|
口②③口 |④---|
80
口口口口 |①---|
口口口口 |②---|
口③②口 |③---|
④口口① |④---|
81
口①口口 |①---|
口②口口 |②---|
口③口口 |③---|
口④口口 |④---|
82
口口①口 |①---|
口口②口 |②---|
口口③口 |③---|
口口④口 |④---|
83
①口口① |①---|
③口口③ |②---|
②口口② |③---|
④口口④ |④---|
84
口①①口 |①---|
口③③口 |②---|
口②②口 |③---|
口④④口 |④---|
85
①口口① |①---|
③口口③ |②---|
②口口② |③---|
④口口④ |④---|
86
口②②口 |①---|
口③③口 |②---|
口①①口 |③---|
口④④口 |④---|
87
口口口口 |①---|
①口口① |----|
①口口① |----|
口口口口 |----|

不確定度: 0

最終更新:2014年07月27日 02:28