Stella Sinistra
Akhuta Philharmonic Orchestra

BASIC

Level: 4
BPM: 120-180
Notes: 255

1
口口口口 |----|
口口口口 |----|
口口口口 |----|
口口口口
2
口口口口 |①---|
口口口口 |----|
口①口口 |----|
口口口口
3
口口口口 |①---|
口口①口 |----|
口口口口 |----|
口口口口
4
口口口口 |①---|
口①口口 |--②-|
口口②口 |----|
口口口口
5
口口口口 |①---|
口口口口 |----|
口口口口 |----|
口口口①
6
口口口口 |①---|
口口①口 |----|
口口口口 |----|
口口口口
7
口口口口 |①---|
口口口口 |----|
口①口口 |----|
口口口口
8
口口口口 |-①------|
口②口口 |---②|
口口①口 |----|
口口口口
9
①口口口 |-----①--|
口口口口 |----|
口口口口 |----|
口口口口
10
口口口口 |----|
口口口口 |----|
口口口口
口口口口

BPM: 180
11
口口口口 |①---|
口①口口 |----|
口口①口 |----|
口口口口
12
口口口③ |①---|
口口②口 |②---|
口①口口 |③---|
口口口口
13
口口口口 |①---|
口①口口 |----|
口口①口 |----|
口口口口
14
口口口③ |①---|
口口②口 |②---|
口①口口 |③---|
口口口口
15
①口口口 |①---|
②①口口 |----|
口口口口 |②---|
口口口口
16
口①口口 |①---|
口③②口 |②---|
口口口口 |③---|
口口口口
17
口口①口 |①---|
口口②① |----|
口口口口 |②---|
口口口口
18
口口口口 |①---|
口口口口 |②---|
口口口① |③---|
口口②③
19
口口口口 |①---|
口口口口 |----|
口口①口 |②---|
口①②口
20
口口口口 |①---|
口口口口 |②---|
口①口口 |③---|
②③口口
21
①口口口 |①---|
②①口口 |----|
口口口口 |②---|
口口口口
22
口①口口 |①---|
口③②口 |②---|
口口口口 |③---|
口口口口
23
口口①口 |①---|
口口②① |----|
口口口口 |②---|
口口口口
24
口口口口 |①---|
口口口口 |②---|
口口口① |③---|
口口②③
25
①口口① |①---|
口口②口 |----|
口口口口 |②---|
口口口口
26
口口口口 |①---|
①口口① |----|
口②口口 |②---|
口口口口
27
口口口口 |①---|
口口口口 |----|
①口口① |②---|
口口②口
28
口口③口 |①---|
口②口口 |②---|
口口①口 |③---|
口口口口
29
①口口① |①---|
口口口口 |----|
口口口口 |----|
口口口口
30
口口口口 |----|
①①①① |----|
口口口口 |①---|
口口口口
31
口口口口 |①---|
口口口口 |----|
①①①① |----|
口口口口
32
口口口口 |----|
口①口口 |①---|
口口②口 |②---|
口口口口
33
口口口口 |①---|
口口口口 |----|
口口口口 |----|
口①口口
34
口口口口 |----|
①①①① |----|
口口口口 |①---|
口口口口
35
口口口口 |①---|
口口口口 |----|
①①①① |----|
口口口口
36
口口口口 |----|
口口①口 |①---|
口②口口 |②---|
口口口口
37
口口口口 |①---|
口口口口 |----|
口口口口 |----|
口口①口
38
口口口口 |----|
①①①① |----|
口口口口 |①---|
口口口口
39
口口口口 |①---|
口口口口 |----|
①①①① |----|
口口口口
40
口口口口 |----|
①口口① |①---|
口②②口 |②---|
口口口口
41
口口口口 |①---|
口口口口 |----|
口口口口 |②---|
①②②①
42
口口口口 |①---|
口口口口 |----|
①口口① |----|
口口口口
43
口口口口 |①---|
①②③口 |②---|
口口口口 |③---|
口口口口
44
口③②① |①---|
口口口口 |②---|
口口口口 |③---|
口口口口
45
口口口口 |①---|
口口①口 |----|
②①口口 |②---|
口口口口
46
③口口口 |①---|
口②口口 |②---|
口口①口 |③---|
口口口口
47
口口口口 |①---|
口口①口 |----|
②①口口 |②---|
口口口口
48
③口口口 |①---|
口②口口 |②---|
口口①口 |③---|
口口口口
49
口口口① |①---|
口口①② |----|
口口口口 |②---|
口口口口
50
口口①口 |①---|
口②③口 |②---|
口口口口 |③---|
口口口口
51
口①口口 |①---|
①②口口 |----|
口口口口 |②---|
口口口口
52
口口口口 |①---|
口口口口 |②---|
①口口口 |③---|
③②口口
53
口口口口 |①---|
口口口口 |----|
口①口口 |②---|
口②①口
54
口口口口 |①---|
口口口口 |②---|
口口①口 |③---|
口口③②
55
口口口① |①---|
口口①② |----|
口口口口 |②---|
口口口口
56
口口①口 |①---|
口②③口 |②---|
口口口口 |③---|
口口口口
57
口①口口 |①---|
①②口口 |----|
口口口口 |②---|
口口口口
58
口口口口 |①---|
口口口口 |②---|
①口口口 |③---|
③②口口
59
①口口① |①---|
口②口口 |----|
口口口口 |②---|
口口口口
60
口口口口 |①---|
①口口① |----|
口口②口 |②---|
口口口口
61
口口口口 |①---|
口口口口 |----|
①口口① |②---|
口②口口
62
口③口口 |①---|
口口②口 |②---|
口①口口 |③---|
口口口口
63
①口口① |①---|
口口口口 |----|
口口口口 |----|
口口口口
64
口口口口 |①---|
①口口① |----|
口口口口 |----|
口口口口
65
口口口口 |①---|
口口口口 |----|
①口口① |----|
口口口口
66
口口口口 |①---|
口口口口 |②---|
口③③口 |③---|
①②②①
67
口口口口 |①---|
口①①口 |----|
口口口口 |----|
口口口口
68
口口口口 |----|
口口口口 |----|
口口口口 |----|
口口口口
69
口口口口 |----|
口口口口 |----|
口口口口 |----|
口口口口
70
口①口口 |----|
口口②口 |①---|
口口口口 |②---|
口口口口
71
口口口口 |①---|
口口口口 |----|
口①②口 |②---|
口口口口
72
口口口口 |①---|
①口口① |----|
口②口口 |②---|
口口口口
73
口口口口 |①---|
口口口口 |----|
①口②① |②---|
口口口口
74
口口口口 |①---|
口口口口 |----|
口口口口 |②---|
①②口①
75
口口口口 |①---|
口口口口 |----|
口口口口 |----|
口口①口
76
口口口口 |----|
口口口口 |----|
口口口口 |----|
口口口口
77
口口口口 |----|
口口口口 |----|
口口口口 |----|
口口口口
78
口①口口 |----|
口口②口 |①---|
口口口口 |②---|
口口口口
79
口口口口 |①---|
口口口口 |----|
口①②口 |②---|
口口口口
80
口口口口 |①---|
①口口① |----|
口②口口 |②---|
口口口口
81
口口口口 |①---|
口口口口 |----|
①口②① |②---|
口口口口
82
口口口口 |①---|
口口口口 |----|
口口口口 |②---|
①②口①
83
口口口口 |①---|
口口③口 |②---|
口口②口 |③---|
口口①口
84
口③口口 |①---|
口②口口 |②---|
口①口口 |③---|
口口口口
85
口口口口 |①---|
口口①口 |②---|
口口②口 |③---|
口口③口
86
口①口口 |①---|
口②口口 |②---|
口③口口 |③---|
口口口口
87
口口口口 |①---|
①②②① |----|
口口口口 |②---|
口口口口
88
口口口口 |①---|
口口口口 |----|
①②②① |②---|
口口口口
89
口口口口 |①---|
口口口口 |----|
口口口口 |----|
①口口①
90
口口口口 |----|
口口口口 |----|
口口口口 |----|
口口口口
91
口口口口 |----|
口口口口 |----|
口口口口 |----|
口口口口
92
口口口口 |----|
口口口口 |----|
口口口口 |----|
口口口口
93
口口口口 |----|
口口口口 |----|
口口口口 |----|
口口口口
94
口口口口 |----|
口口口口 |----|
口口口口 |----|
口口口口
95
口口口口 |----|
口口口口 |----|
口口口口 |----|
口口口口
96
口口口口 |----|
口口口口 |----|
口口口口 |----|
口口口口
97
口口口口 |----|
口口口口 |----|
口口口口 |----|
口口口口
98
口口口口 |----|
口口口口 |----|
口口口口 |----|
口口口口
99
口口口口 |----|
口口口口 |----|
口口口口 |----|
口口口口
100
口口口口 |①---|
口口口③ |②---|
口口口② |③---|
口口口①
101
口③②① |①---|
口口口口 |②---|
口口口口 |③---|
口口口口
102
①口口口 |①---|
口①口口 |----|
口②口口 |②---|
口口口口
103
口口口口 |①---|
口口口① |----|
口口①口 |②---|
口口②口
104
①口口口 |①---|
口①口口 |----|
口②口口 |②---|
口口口口
105
口口口口 |①---|
口口口① |----|
口口①口 |②---|
口口②口
106
①口口① |①---|
口①①口 |----|
口口口口 |----|
口口口口
107
①口口口 |----|
口②口口 |①---|
口口口口 |②---|
口口口口
108
口口口口 |①---|
口口口口 |----|
口口①① |----|
口口①①

不確定度: 0

最終更新:2014年07月27日 02:28