Stella Sinistra
Akhuta Philharmonic Orchestra

ADVANCED

Level: 7
BPM: 120-180
Notes: 419

1
口口口口 |----|
口口口口 |----|
口口口口 |----|
口口口口
2
口口口④ |①--②|
口口①口 |--③-|
口③口口 |-④--|
②口口口
3
④口口口 |①--②|
口①口口 |--③-|
口口③口 |-④--|
口口口②
4
口口口口 |①--②|
口④①口 |--③-|
口②③口 |-④--|
口口口口
5
①口口口 |①---|
口口口口 |----|
口口口口 |----|
口口口①
6
口口口① |①--②|
口④口口 |--③-|
口口③口 |-④--|
②口口口
7
①口口口 |①--②|
口口③口 |-------③----|
口④口口 |---④----|
口口口②
8
口口口口 |-①----|
口①④口 |②--③|
口③②口 |-----④--|
口口口口
9
口口口① |----①-|
口口口口 |----|
口口口口 |----|
①口口口
10
口口口口 |----|
口口口口 |----|
口口口口
口口口口

BPM: 180
11
口口口口 |①---|
口②口口 |②---|
口①口口 |③---|
口③①口
12
口口口口 |①-②-③-|
⑤口③⑤ |④---|
④②①④ |⑤---|
口口口口
13
口①①口 |①---|
口口口口 |②---|
口②③口 |③---|
口口口口
14
⑤③口⑤ |①-②-③-|
④①②④ |④---|
口口口口 |⑤---|
口口口口
15
口②①口 |①---|
口③口口 |②---|
口口口口 |③---|
口口口口
16
口口口口 |①-②-③-|
口口①口 |④---|
口⑤②口 |⑤---|
口④③口
17
①②③口 |①-②-③-|
口⑤④口 |④---|
口口口口 |⑤---|
口口口口
18
口口口口 |①-②-③-|
口口口口 |④---|
口③②① |⑤---|
口④⑤口
19
①口口口 |①-②-③-|
②⑤口口 |④---|
③④口口 |⑤---|
口口口口
20
⑤口口⑤ |①-②-③-|
④口③④ |④---|
口口②口 |⑤---|
口口①口
21
口口口口 |①-②-③-|
口①口口 |④---|
口②⑤口 |⑤---|
口③④口
22
口①口口 |①-②-③-|
⑤②口⑤ |④---|
④③口④ |⑤---|
口口口口
23
口口口口 |①-②-③-|
口口①口 |④---|
口⑤②口 |⑤---|
口④③口
24
口口①口 |①-②-③-|
口口②口 |④---|
⑤口③⑤ |⑤---|
④口口④
25
①口口① |①---|
口⑤②口 |②---|
口口④口 |③-④-⑤-|
口③口口
26
口口①口 |①---|
口口⑤口 |②---|
②④口② |③-④-⑤-|
口口③口
27
③①③口 |①---|
②口口② |②---|
口口口口 |③---|
口口口口
28
口口口口 |①---|
口口口口 |②---|
口①②① |③---|
口③口③
29
口①口口 |①---|
口口口口 |②---|
口②口口 |----|
口口②口
30
口口口口 |①---|
①口②① |----|
口口口口 |②---|
口口口口
31
口口口口 |①---|
口口口口 |----|
①口口① |----|
口口口口
32
①口口口 |----|
口③②口 |①-②-③-|
口⑤口④ |④-⑤-⑥-|
口口⑥口
33
口口口口 |①---|
口口口口 |----|
口口口口 |----|
①口口①
34
口口口口 |----|
口①口口 |----|
①口口① |①---|
口口口口
35
口口口口 |①---|
①口口① |----|
口口①口 |----|
口口口口
36
口①口口 |----|
③④口② |--①-②-|
口口⑤口 |③-④-⑤-|
口口口口
37
口口口口 |①---|
口口口口 |----|
口口口口 |----|
①口口①
38
口口口口 |----|
①口口① |----|
口口①口 |①---|
口口口口
39
口口口口 |①---|
口口①口 |----|
①口口① |----|
口口口口
40
①口口口 |----|
口③②口 |①-②-③-|
口⑤口④ |④-⑤-⑥-|
口口⑥口
41
口口口口 |①---|
口②②口 |----|
口口口口 |②---|
①口口①
42
口口口口 |①---|
①口口① |----|
口口口口 |----|
口口口口
43
①口③口 |①---|
口②口口 |②---|
③口口口 |③---|
口口口口
44
口口口口 |①---|
口口口② |②---|
口口①口 |③---|
口②口③
45
口口口口 |①---|
口②口口 |②---|
口①口口 |③---|
口③①口
46
口口口口 |①-②-③-|
⑤口③⑤ |④---|
④②①④ |⑤---|
口口口口
47
口①①口 |①---|
口口口口 |②---|
口②③口 |③---|
口口口口
48
⑤③口⑤ |①-②-③-|
④①②④ |④---|
口口口口 |⑤---|
口口口口
49
口②①口 |①---|
口③口口 |②---|
口口口口 |③---|
口口口口
50
口口口口 |①-②-③-|
口口①口 |④---|
口⑤②口 |⑤---|
口④③口
51
①②③口 |①-②-③-|
口⑤④口 |④---|
口口口口 |⑤---|
口口口口
52
口口口口 |①-②-③-|
口口口口 |④---|
口③②① |⑤---|
口④⑤口
53
①口口口 |①-②-③-|
②⑤口口 |④---|
③④口口 |⑤---|
口口口口
54
⑤口口⑤ |①-②-③-|
④口③④ |④---|
口口②口 |⑤---|
口口①口
55
口口口口 |①-②-③-|
口①口口 |④---|
口②⑤口 |⑤---|
口③④口
56
口①口口 |①-②-③-|
⑤②口⑤ |④---|
④③口④ |⑤---|
口口口口
57
口口口口 |①-②-③-|
口口①口 |④---|
口⑤②口 |⑤---|
口④③口
58
口口①口 |①-②-③-|
口口②口 |④---|
⑤口③⑤ |⑤---|
④口口④
59
①口口① |①---|
口⑤②口 |②---|
口口④口 |③-④-⑤-|
口③口口
60
口口①口 |①---|
口口⑤口 |②---|
②④口② |③-④-⑤-|
口口③口
61
②①②口 |①---|
口口口口 |②---|
口口③口 |③---|
口口口口
62
口③口③ |①---|
口口口② |②---|
口①口① |③---|
口口口口
63
口口②口 |①---|
①③口口 |②---|
口口②口 |③---|
口③口口
64
口②口口 |①---|
口口③① |②---|
口②口口 |③---|
口口③口
65
口口口② |①---|
③①口口 |②---|
口口口② |③---|
③口口口
66
②口口口 |①---|
口口①③ |②---|
②口口口 |③---|
口口口③
67
口口口口 |①---|
口口口口 |----|
口口口口 |----|
口①①口
68
口口口口 |----|
口口口口 |----|
口口口口 |----|
口口口口
69
口口口口 |----|
口口口口 |----|
口口口口 |----|
口口口口
70
①口口① |----|
口口②② |①---|
口口口口 |②---|
口口口口
71
口口口口 |①---|
口口口口 |②---|
③②①③ |③---|
口口口口
72
口口口口 |①-②-③-|
口⑤口口 |④---|
口口④口 |⑤---|
③②①口
73
口②口① |①---|
口口①口 |②---|
③口口③ |③---|
口口口口
74
口口口口 |①-②-③-|
口口⑤口 |④---|
口④口口 |⑤---|
口①②③
75
①口口口 |①---|
口①口口 |----|
口口口口 |----|
口口口口
76
口口口口 |----|
口口口口 |----|
口口口口 |----|
口口口口
77
口口口口 |----|
口口口口 |----|
口口口口 |----|
口口口口
78
①口口① |----|
口口②② |①---|
口口口口 |②---|
口口口口
79
口口口口 |①---|
口口口口 |②---|
③②①③ |③---|
口口口口
80
口口口口 |①-②-③-|
口⑤口口 |④---|
口口④口 |⑤---|
③②①口
81
口②口① |①---|
口口①口 |②---|
③口口③ |③---|
口口口口
82
口口口口 |①-②-③-|
口口⑤口 |④---|
口④口口 |⑤---|
口①②③
83
①口口口 |①---|
②①口口 |②---|
口口口口 |③-④-⑤-|
口⑤④③
84
口口口① |①---|
口口①② |②---|
③④⑤口 |③-④-⑤-|
口口口口
85
口口口口 |①---|
口⑤④③ |②---|
口口口① |③-④-⑤-|
口口①②
86
③④⑤口 |①---|
①口口口 |②---|
②①口口 |③-④-⑤-|
口口口口
87
口口口① |①---|
口口①② |②---|
口③口口 |③---|
口口口口
88
口口口口 |①---|
口口口口 |②---|
①口②① |③---|
③口口③
89
口口口口 |①---|
口口口口 |----|
口口口口 |----|
口①口口
90
口口口口 |----|
口口口口 |----|
口口口口 |----|
口口口口
91
口口口口 |----|
口口①口 |①---|
口①口口 |----|
口口口口
92
口口口口 |----|
口口口口 |----|
口口口口 |----|
口口口口
93
口口口口 |----|
口口口口 |----|
口口口口 |----|
口口口口
94
口口口口 |----|
口口口口 |----|
口口口口 |----|
口口口口
95
口口口口 |----|
口口口口 |----|
口口口口 |----|
口口口口
96
口口口口 |----|
口口口口 |----|
口口口口 |----|
口口口口
97
口口口口 |----|
口口口口 |----|
口口口口 |----|
口口口口
98
口口口口 |----|
口口口口 |----|
口口口口 |----|
口口口口
99
口口口口 |----|
口口口口 |----|
口口口口 |----|
口口口口
100
①口口口 |①---|
口②口口 |②---|
口口③口 |③---|
口口口口
101
口口口口 |①---|
口口口③ |②---|
口口口① |③---|
口③①②
102
口口口① |①---|
口③②口 |②---|
口口③口 |③---|
①口口口
103
口③口口 |①---|
①口口口 |②---|
口②口③ |③---|
口口①口
104
口口口② |①---|
口口③口 |②---|
①口口口 |③---|
口①口口
105
口口口口 |①---|
②①口口 |②---|
口③①口 |③---|
口口②口
106
口①口口 |①---|
口口口口 |----|
口口口① |----|
口口口口
107
①口口口 |----|
口②口口 |①---|
口口口口 |②---|
口口口口
108
口口口口 |①---|
口口口口 |----|
口口①① |----|
口口①口
109
口口口口 |①---|
口口口口 |----|
口口口口 |----|
口口口①

不確定度: 0

最終更新:2014年07月27日 02:27