マインド・ゲーム
96 with メカショッチョー

BASIC

Level: 3
BPM: 180
Notes: 210

1
口口口口 |----|
口口口口 |----|
口口口口 |----|
口口口口 |----|
2
口口口口 |----|
口口口口 |----|
口口口口 |----|
口口口口 |----|
3
口口口口 |----|
口口口口 |----|
口口口口 |----|
口口口口 |----|
4
口口口口 |①---|
口①①口 |----|
口口口口 |----|
口口口口 |----|
5
口口口口 |----|
口口口口 |----|
口口口口 |----|
口口口口 |----|
6
口口口口 |①---|
口口口口 |----|
口①①口 |----|
口口口口 |----|
7
口口口口 |----|
口口口口 |----|
口口口口 |----|
口口口口 |----|
8
口口口口 |①---|
口口口① |----|
口口口口 |----|
口口口口 |----|
9
口口口口 |①---|
①口口口 |----|
口口口口 |----|
口口口口 |----|
10
口口口口 |①---|
口口口口 |----|
口②①口 |②---|
口口口口 |----|
11
口口口口 |①---|
口口口口 |----|
口口口口 |----|
口口①口 |----|
12
口④口口 |①---|
口③口口 |②---|
口②口口 |③---|
口①口口 |④---|
13
②口口① |①---|
④口口③ |②---|
口口口口 |③---|
口口口口 |④---|
14
口口④口 |①---|
口口③口 |②---|
口口②口 |③---|
口口①口 |④---|
15
①口口② |①---|
③口口④ |②---|
口口口口 |③---|
口口口口 |④---|
16
②②口口 |①---|
口口口口 |----|
①①口口 |②---|
口口口口 |----|
17
口口②② |①---|
口口口口 |----|
口口①① |②---|
口口口口 |----|
18
口口口口 |①---|
口①①口 |----|
口②②口 |②---|
口口口口 |----|
19
口口口口 |①---|
口口口口 |----|
口口口口 |----|
口①①口 |----|
20
口口口口 |①---|
口口口口 |----|
口①口口 |----|
口口口口 |----|
21
口口口口 |①---|
口①口口 |----|
口口口口 |----|
口口口口 |----|
22
口口口口 |①---|
口口①口 |----|
口口口口 |----|
口口口口 |----|
23
口口口口 |①---|
口①口口 |②---|
口口②口 |----|
口口口口 |----|
24
口口口口 |①---|
口口口口 |----|
口口口口 |----|
①口口口 |----|
25
口口口口 |①---|
口口口口 |----|
口口口口 |----|
口①口口 |----|
26
口口口口 |①---|
口口口口 |----|
口口口口 |----|
口口①口 |----|
27
口口口口 |①---|
口口口口 |----|
口口口口 |----|
口口口① |----|
28
口④口口 |①---|
口③口口 |②---|
口②口口 |③---|
口①口口 |④---|
29
口口①口 |①---|
口口②口 |②---|
口口③口 |③---|
口口④口 |④---|
30
口口口口 |①---|
口口口口 |②---|
③口口④ |③---|
①口口② |④---|
31
③口口④ |①---|
①口口② |②---|
口口口口 |③---|
口口口口 |④---|
32
口口①口 |①---|
口口②口 |②---|
口口③口 |③---|
口口④口 |④---|
33
口④口口 |①---|
口③口口 |②---|
口②口口 |③---|
口①口口 |④---|
34
②口口① |①---|
④口口③ |②---|
口口口口 |③---|
口口口口 |④---|
35
口口口口 |①---|
口口口口 |----|
口①①口 |----|
口口口口 |----|
36
口口口口 |①---|
口①①口 |----|
口口口口 |----|
口口口口 |----|
37
口口口口 |①---|
口口口① |----|
口口口① |----|
口口口口 |----|
38
口口口口 |①---|
①口口口 |----|
①口口口 |----|
口口口口 |----|
39
口口口口 |①---|
口口口口 |----|
口①①口 |----|
口口口口 |----|
40
口口口口 |①---|
口①①口 |----|
口口口口 |----|
口口口口 |----|
41
口口口口 |①---|
口口口① |----|
口口口① |----|
口口口口 |----|
42
口口口口 |①---|
①口口口 |----|
①口口口 |----|
口口口口 |----|
43
口口口口 |①---|
口①①口 |----|
口①①口 |----|
口口口口 |----|
44
口口口口 |①---|
口口口口 |②---|
④③②① |③---|
口口口口 |④---|
45
口口口口 |①---|
①②③④ |②---|
口口口口 |③---|
口口口口 |④---|
46
口①②口 |①---|
口③④口 |②---|
口口口口 |③---|
口口口口 |④---|
47
口口口口 |①---|
口口口口 |②---|
口①②口 |③---|
口③④口 |④---|
48
口口口口 |①---|
口口口口 |②---|
①②③④ |③---|
口口口口 |④---|
49
口口口口 |①---|
④③②① |②---|
口口口口 |③---|
口口口口 |④---|
50
口②①口 |①---|
口④③口 |②---|
口口口口 |③---|
口口口口 |④---|
51
口口口口 |①---|
口口口口 |②---|
口②①口 |③---|
口④③口 |④---|
52
口口口口 |①---|
口口口口 |----|
①口口① |----|
口口口口 |----|
53
口口口口 |①---|
①①口口 |----|
口口口口 |----|
口口口口 |----|
54
口口口口 |①---|
口口①① |----|
口口口口 |----|
口口口口 |----|
55
口口口口 |①---|
口②①口 |----|
口口口口 |②---|
口口口口 |----|
56
口口口口 |①---|
口口口口 |----|
口①①口 |----|
口口口口 |----|
57
口口口口 |①---|
口口口口 |----|
①①口口 |----|
口口口口 |----|
58
口口口口 |①---|
口口口口 |----|
口口①① |②---|
口②②口 |----|
59
口口口口 |①---|
口②②口 |----|
口①①口 |②---|
口口口口 |----|
60
口①①口 |①---|
口口口口 |----|
口口口口 |----|
口口口口 |----|
61
口口口口 |①---|
口口口① |----|
口口口口 |----|
口口口口 |----|
62
口口口口 |①---|
口口口口 |----|
口口口① |----|
口口口口 |----|
63
口口口口 |①---|
口口口口 |----|
口口口口 |----|
口口口① |----|
64
口口口口 |①---|
口口口口 |----|
口口口口 |----|
口①①口 |----|
65
口口口口 |①---|
口口口口 |----|
①口口口 |----|
口口口口 |----|
66
口口口口 |①---|
①口口口 |----|
口口口口 |----|
口口口口 |----|
67
①口口口 |①---|
口口口口 |----|
口口口口 |----|
口口口口 |----|
68
口口口口 |①---|
口①①口 |----|
口①①口 |----|
口口口口 |----|
69
口口口口 |①---|
口②口口 |----|
口口①口 |②---|
口口口口 |----|
70
口口①口 |①---|
口口口口 |----|
口口口口 |----|
口口口口 |----|
71
口①口口 |①---|
口口口口 |----|
口口口口 |----|
口口口口 |----|
72
口口口口 |①---|
口①①口 |----|
口口口口 |----|
口口口口 |----|
73
口口口口 |①---|
口口口口 |----|
口①①口 |----|
口口口口 |----|
74
口口口口 |①---|
①口口口 |----|
口②口口 |②---|
口口口口 |----|
75
口口口口 |①---|
口口①口 |----|
口口口② |②---|
口口口口 |----|
76
口口口口 |①---|
口③口口 |②---|
口②口口 |③---|
口①④口 |④---|
77
口口口口 |①---|
口口②口 |②---|
口④①口 |③---|
口③口口 |④---|
78
口口口口 |①---|
②①口② |②---|
口口口口 |----|
口口口口 |----|
79
口口口口 |①---|
口口口口 |----|
口①①口 |----|
口口口口 |----|
80
口口口口 |①---|
口①①口 |②---|
④③②口 |③---|
口口口口 |④---|
81
口口口口 |①---|
①②③④ |②---|
口口口口 |③---|
口口口口 |④---|
82
口①②口 |①---|
口③④口 |②---|
口口口口 |③---|
口口口口 |④---|
83
口口口口 |①---|
口口口口 |②---|
口①②口 |③---|
口③④口 |④---|
84
口口口口 |①---|
口口口口 |----|
①口口① |----|
口口口口 |----|
85
口口口口 |①---|
口①①口 |----|
口①①口 |----|
口口口口 |----|

不確定度: 0

最終更新:2014年07月27日 02:26