マインド・ゲーム
96 with メカショッチョー

ADVANCED

Level: 7
BPM: 180
Notes: 433

1
口口口口 |----|
口口口口 |----|
口口口口 |----|
口口口口 |----|
2
口口口② |①---|
①①①② |----|
①①①② |②---|
口①口② |----|
3
①①口口 |①---|
①①口口 |----|
口口口口 |----|
口口口口 |----|
4
口口口口 |----|
口②①口 |①-②-|
口④③⑤ |③-④-|
口口口口 |--⑤-|
5
口②③口 |--①-|
口⑤④① |②-③-|
口口⑥口 |--④-|
口口口口 |⑤-⑥-|
6
②口口① |----|
④口口③ |①-②-|
口⑥⑤口 |③-④-|
口口口口 |⑤-⑥-|
7
口②①口 |--①-|
⑥口③口 |②-③-|
⑤口口口 |--④-|
④口口口 |⑤-⑥-|
8
口口口③ |--①-|
⑥口口② |②-③-|
⑤口口① |--④-|
④口口口 |⑤-⑥-|
9
口口口③ |--①-|
⑥口口② |②-③-|
⑤口口① |--④-|
④口口口 |⑤-⑥-|
10
口口口口 |--①-|
口③②① |②-③-|
口⑤④口 |④-⑤-|
口⑦⑥口 |⑥-⑦-|
11
口口口口 |----|
口①①口 |--①-|
口口口口 |----|
口口口口 |----|
12
口口口口 |----|
口口②① |①-②-|
④③口口 |③-④-|
口口⑤口 |--⑤-|
13
口④③口 |--①-|
口②⑤口 |②-③-|
口⑥①口 |--④-|
口口口口 |⑤-⑥-|
14
口口口口 |----|
①②⑥口 |①-②-|
口⑤③④ |③-④-|
口口口口 |⑤-⑥-|
15
口口①口 |--①-|
⑥②口口 |②-③-|
⑤口③口 |--④-|
④口口口 |⑤-⑥-|
16
口口口③ |--①-|
⑥口口② |②-③-|
⑤口口① |--④-|
④口口口 |⑤-⑥-|
17
口口口③ |--①-|
⑥口口② |②-③-|
⑤口口① |--④-|
④口口口 |⑤-⑥-|
18
口口口口 |--①-|
口③②① |②-③-|
口⑤④口 |④-⑤-|
口⑦⑥口 |⑥-⑦-|
19
口口口口 |----|
口①①口 |--①-|
口口口口 |----|
口口口口 |----|
20
口口口⑤ |----|
口④口口 |①---|
口口③口 |②-③-|
口②口① |④-⑤-|
21
③口口口 |--①-|
口口②口 |②-③-|
口①口口 |--④-|
⑤④④⑤ |--⑤-|
22
口③口③ |--①-|
口②口口 |②---|
口口①口 |----|
口口口口 |--③-|
23
口口口口 |--①-|
①③①口 |②---|
②④②口 |--③-|
口⑤口口 |④-⑤-|
24
口口①口 |----|
口②口口 |----|
口口③口 |--①-|
口口口口 |②-③-|
25
口口口⑦ |①-②-|
⑥口口口 |③---|
口③口⑤ |④-⑤-|
④①②口 |⑥-⑦-|
26
口③④口 |--①-|
口⑤⑥口 |②---|
口②①口 |③-④-|
口口口口 |⑤-⑥-|
27
口口口口 |--①-|
口口口口 |②-③-|
口①②③ |----|
口①②③ |----|
28
口口口⑤ |----|
口④口口 |①---|
口口③口 |②-③-|
口②口① |④-⑤-|
29
③口④口 |--①-|
口⑤②口 |②-③-|
口①⑥口 |④-⑤-|
口⑦口口 |⑥-⑦-|
30
口口口口 |--①-|
②口③口 |②---|
①③口口 |----|
口口口口 |--③-|
31
口口口口 |--①-|
②口口① |②---|
①口口② |--③-|
口③④⑤ |④-⑤-|
32
口口口口 |--①-|
口口口口 |----|
口口③① |--②-|
口②②口 |--③-|
33
口②口③ |--①-|
④口①口 |②---|
口口口⑤ |③-④-|
⑥口口口 |⑤-⑥-|
34
口口口口 |----|
①②口口 |----|
口口③口 |--①-|
口口口口 |②-③-|
35
口口口口 |----|
口口②① |①-②-|
④③口口 |③-④-|
口⑤⑤口 |--⑤-|
36
口口①① |----|
口口口口 |----|
口口口口 |----|
口口口口 |--①-|
37
③③口口 |--①-|
口④①口 |②-③-|
口②⑤口 |--④-|
口⑥口口 |⑤-⑥-|
38
口口口口 |--①-|
口口口口 |----|
口口口口 |----|
口口①① |----|
39
③③口口 |----|
口口②口 |----|
口①口口 |--①-|
口口口口 |②-③-|
40
口①①口 |----|
口口口口 |----|
口口口口 |----|
口口口口 |--①-|
41
口口口口 |--①-|
②④③① |②-③-|
口⑥⑤口 |④-⑤-|
口口⑦口 |⑥-⑦-|
42
口口③口 |----|
①②口口 |----|
口口口口 |--①-|
口口口口 |②-③-|
43
口①口口 |--①-|
口口②口 |②---|
口口③口 |③---|
口口④口 |④---|
44
①②口③ |①-②-|
口⑦⑦④ |③-④-|
口⑤⑥口 |⑤-⑥-|
口口口口 |--⑦-|
45
口口口口 |--①-|
口口口口 |②-③-|
②口口① |④---|
④口口③ |----|
46
⑦⑥⑤④ |①-②-|
⑧口口③ |③-④-|
口口②口 |⑤-⑥-|
口①口口 |⑦-⑧-|
47
口口口口 |--①-|
口口口口 |②---|
④②①④ |③---|
③口口③ |④---|
48
③口②① |①-②-|
④⑧⑤口 |③-④-|
口⑥⑦口 |⑤-⑥-|
口口口口 |⑦-⑧-|
49
口口口口 |--①-|
口口口口 |②-③-|
②口口① |④---|
④口口③ |----|
50
③④②① |①-②-|
⑦⑧⑥⑤ |③-④-|
口口口口 |⑤-⑥-|
口口口口 |⑦-⑧-|
51
口口口口 |--①-|
口口口口 |②---|
口④①口 |③-④-|
⑤②③⑤ |--⑤-|
52
口①口口 |----|
口②口口 |----|
口③口口 |--①-|
口口口口 |②-③-|
53
口④口口 |--①-|
口⑤③口 |②-③-|
口⑥②口 |--④-|
口口①口 |⑤-⑥-|
54
口④口口 |--①-|
口⑤③口 |②-③-|
口⑥②口 |--④-|
口口①口 |⑤-⑥-|
55
口口口⑦ |--①-|
⑥口口⑤ |②-③-|
④口口③ |④-⑤-|
②口口① |⑥-⑦-|
56
口④口口 |--①-|
口⑤③口 |②-③-|
口⑥②口 |--④-|
口口①口 |⑤-⑥-|
57
口④口口 |--①-|
口⑤③口 |②-③-|
口⑥②口 |--④-|
口口①口 |⑤-⑥-|
58
⑥口口口 |--①-|
口口口⑤ |②-③-|
④口口③ |④-⑤-|
②口口① |--⑥-|
59
口口口口 |--①-|
口④①口 |②---|
口②③口 |③-④-|
⑤口口⑤ |--⑤-|
60
口口口口 |----|
口口口口 |----|
口口口口 |----|
口口口口 |----|
61
口口口口 |①---|
口口口口 |----|
口口①口 |----|
口口口口 |----|
62
口口口口 |①---|
口口①口 |----|
口口口口 |----|
口口口口 |----|
63
口口①口 |①---|
口口口口 |----|
口口口口 |----|
口口口口 |----|
64
口①口口 |①---|
口口口口 |----|
口口口口 |----|
口口口口 |----|
65
口口口口 |①---|
口①口口 |----|
口口口口 |----|
口口口口 |----|
66
口口口口 |--①-|
口①①口 |----|
口①①口 |----|
口口口口 |----|
67
口口口口 |①---|
口①①口 |----|
口①①口 |----|
口口口口 |----|
68
①口口① |①---|
口口口口 |----|
口口口口 |----|
口口口口 |----|
69
口口⑥口 |--①-|
口④⑤口 |②-③-|
口③②口 |④-⑤-|
口⑦①口 |⑥-⑦-|
70
口①④② |①---|
口③口口 |----|
口口口口 |--②-|
口口口口 |③-④-|
71
口口口口 |①---|
①③口口 |----|
口口口口 |----|
口口②口 |②-③-|
72
口口口口 |①---|
口口②口 |----|
口③①口 |----|
口口口口 |②-③-|
73
口口①口 |①---|
口口口口 |----|
口口口口 |----|
口口口口 |----|
74
口⑥口① |①-②-|
口②⑦⑤ |③-④-|
④口口口 |⑤-⑥-|
⑧口③口 |⑦-⑧-|
75
口⑥口③ |①-②-|
④②口口 |③-④-|
口口⑤① |⑤-⑥-|
口口口⑦ |⑦---|
76
口口口口 |①---|
②①①② |②---|
④口③口 |③-④-|
口⑤⑤口 |⑤---|
77
口⑤⑤口 |①---|
口④④口 |②-③-|
口②口③ |④---|
①口口① |⑤---|
78
①口口① |①---|
口③②口 |--②-|
口⑤④口 |③-④-|
口口⑥口 |⑤-⑥-|
79
口口口口 |①-②-|
③口口口 |③---|
口口口② |----|
口①口口 |----|
80
①口口① |①---|
口③口④ |②-③-|
口⑦②口 |④-⑤-|
⑤口⑥口 |⑥-⑦-|
81
②口口① |①-②-|
⑧口③口 |③-④-|
④口⑦口 |⑤-⑥-|
口⑥口⑤ |⑦-⑧-|
82
口口①⑦ |①-②-|
口②⑤口 |③-④-|
⑧⑥口③ |⑤-⑥-|
④口口口 |⑦-⑧-|
83
④口⑦口 |①-②-|
⑧②⑤口 |③-④-|
口口口③ |⑤-⑥-|
⑥口①口 |⑦-⑧-|
84
口口口口 |①---|
口②②口 |----|
口①①口 |--②-|
口③③口 |--③-|
85
口口口口 |①---|
①口口① |----|
口口口口 |----|
口口口口 |----|

不確定度: 0

最終更新:2014年07月27日 02:26