陽炎
星野奏子

BASIC

Level: 4
BPM: 140
Notes: 226

1
口口口口 |----|
口口口口 |----|
口口口口 |----|
口口口口 |----|
2
口口口口 |①---|
口①①口 |②---|
②③④口 |③---|
口口口口 |④---|
3
口口口口 |①---|
口口口口 |----|
口口口① |----|
口口口口 |----|
4
口口口口 |①---|
口口口口 |②---|
口④③② |③---|
口①①口 |④---|
5
口口口口 |①---|
口口口口 |----|
①口口口 |----|
口口口口 |----|
6
口口口口 |①---|
口①①口 |②---|
②③④口 |③---|
口口口口 |④---|
7
口口口口 |①---|
口口口口 |----|
口口口① |----|
口口口口 |----|
8
口口口口 |①---|
口口口口 |②---|
口④③② |③---|
口①①口 |④---|
9
口口口口 |①---|
②口口② |----|
①口口① |②---|
口口口口 |----|
10
口①①口 |①---|
口口口口 |----|
口口口口 |----|
口口口口 |----|
11
口①①口 |①---|
口②②口 |②---|
口③③口 |③---|
口④④口 |④---|
12
口口口口 |①---|
口②③口 |----|
①口口① |②---|
口口口口 |③---|
13
②口口② |①---|
口口口口 |----|
①口③① |②---|
口口口口 |③---|
14
口口口口 |①---|
口口①口 |----|
口口口口 |----|
口口口口 |----|
15
口口口口 |①---|
①口②口 |②---|
口③口④ |③---|
口口口口 |④---|
16
口口口口 |①---|
口①①口 |----|
口口口口 |----|
口口口口 |----|
17
口口口口 |①---|
口口口口 |----|
口口口口 |----|
口①①口 |----|
18
口口口口 |①---|
口①①口 |----|
②③口口 |②---|
口口口口 |③---|
19
口口口口 |①---|
口口口口 |----|
口口①口 |----|
口口口口 |----|
20
口口口口 |①---|
①口①口 |----|
口口口口 |----|
口口口口 |----|
21
口口口口 |①---|
口口口口 |----|
口①口① |----|
口口口口 |----|
22
口口口口 |①---|
口①①口 |----|
口口③② |②---|
口口口口 |③---|
23
口口口口 |①---|
口口口口 |----|
口①口口 |----|
口口口口 |----|
24
口口口口 |①---|
②口②口 |----|
口①口① |②---|
口口口口 |----|
25
口①口① |①---|
口②口② |----|
口口口口 |②---|
口口口口 |----|
26
口口口口 |①---|
口③④口 |②---|
口口口口 |③---|
口①②口 |④---|
27
口口口口 |①---|
口口口口 |----|
①口口① |----|
口口口口 |----|
28
口③④口 |①---|
口口口口 |②---|
口①②口 |③---|
口口口口 |④---|
29
口口口口 |①---|
①②②① |----|
口口口口 |----|
口口口口 |②---|
30
口口口口 |①---|
②口口② |----|
口口口口 |----|
口①①口 |②---|
31
口口口口 |①---|
口口口口 |----|
口口口口 |----|
①口口① |----|
32
口口口口 |①---|
口口口口 |----|
①口口② |②---|
口①②口 |----|
33
口口口口 |①---|
口①②口 |②---|
口③④口 |③---|
口口口口 |④---|
34
口①②口 |①---|
口①②口 |----|
口口口口 |②---|
口口口口 |----|
35
口口口口 |①---|
口口口口 |----|
①口口①
口口口口

口口口口
②口口口
③口口口 |②---|
口口口口 |③---|
36
口口口口 |①---|
口口口① |②---|
口④④② |③---|
口③③口 |④---|
37
口②②口 |①---|
③①①口 |②---|
④口口口 |③---|
口口口口 |④---|
38
口③③口 |①---|
口④④① |②---|
口口口② |③---|
口口口口 |④---|
39
口口口口 |①---|
口口口口 |②---|
口①①口 |③---|
③②②④ |④---|
40
口口口口 |①---|
④口口④ |②---|
口①②口 |③---|
③口口③ |--④-|
41
口口口口 |----|
口口口口 |----|
口①②口 |①---|
口口口口 |②---|
42
口③③口 |①---|
①④④② |②---|
口口口口 |③---|
口口口口 |④---|
43
口口口口 |①---|
③口口口 |②---|
④①①口 |③---|
口②②口 |④---|
44
口口口口 |①---|
口口口① |②---|
口④④② |③---|
口③③口 |④---|
45
③②②口 |①---|
口①①口 |②---|
③口口口 |③---|
口口口口 |----|
46
口②②① |①---|
口③③口 |----|
口口口① |②---|
口口口口 |③---|
47
口口口口 |①---|
口③③口 |②---|
口①①口 |③---|
口②②口 |----|
48
口①②口 |----|
口口口口 |----|
口口口口 |①---|
口口口口 |②---|
49
口口口口 |①---|
③口口③ |②---|
口①②口 |③---|
口口口口 |----|
50
口口口口 |①---|
口口口口 |----|
①口口① |②---|
②口口② |----|
51
口②②口 |①---|
口口口口 |----|
口①①口 |②---|
口口口口 |----|
52
①口口① |----|
②口口② |----|
口口口口 |①---|
口口口口 |②---|
53
口口口口 |①---|
口口口口 |②---|
①③③① |③---|
②口口② |----|
54
口口口口 |①---|
口①②口 |②---|
口③③口 |③---|
口口口口 |----|
55
①口口① |①---|
口口③口 |②---|
口口②口 |③---|
口口口口 |----|
56
口口口口 |----|
②③口口 |①---|
口①口口 |②---|
口口口口 |③---|
57
口③③口 |①---|
口口①② |②---|
口口口口 |③---|
口口口口 |----|
58
口口口口 |①---|
口①①口 |----|
口②②口 |②---|
口口口口 |----|
59
口口口口 |----|
①口口① |--①-|
口口口口 |----|
口口口口 |----|


不确定度: 0

最終更新:2012年11月08日 18:22