IX
dj TAKA VS DJ TOTTO feat.藍

BASIC

Level: 5
BPM: 198
Notes: 430

1
口口口口 |----|
口口口口 |----|
口口口口 |----|
口口口口 |----|
2
口口口口 |----|
口口口口 |----|
口口口口 |----|
口口口口 |----|
3
口口口口 |①---|
①口口① |----|
口口口口 |----|
口口口口 |----|
4
口口口口 |①---|
口口口口 |----|
①口口① |----|
口口口口 |----|
5
口①①口 |①---|
口口口口 |----|
口口口口 |----|
口口口口 |----|
6
口口口口 |①---|
口口口口 |----|
口口口口 |----|
口①①口 |----|
7
口口口口 |①---|
①口口① |----|
口口口口 |----|
口口口口 |----|
8
口口口口 |①---|
口口口口 |----|
①口口① |----|
口口口口 |----|
9
口①①口 |①---|
口口口口 |----|
口口口口 |----|
口口口口 |----|
10
口口口口 |①---|
口口口口 |----|
口口口口 |----|
口①①口 |----|
11
口口口口 |①---|
口①①口 |----|
口①①口 |----|
口口口口 |----|
12
口口口口 |----|
口口口口 |----|
口口口口 |----|
口口口口 |----|
13
口口口口 |①---|
①口口① |----|
①口口① |----|
口口口口 |----|
14
口口口口 |----|
口口口口 |----|
口口口口 |--①-|
①口口① |----|
15
口口口口 |①---|
口①①口 |----|
口①①口 |----|
口口口口 |----|
16
口口口口 |----|
口口口口 |----|
口口口口 |----|
口口口口 |----|
17
口口口口 |①---|
①②②① |----|
①②②① |----|
口口口口 |--②-|
18
口口口口 |--①-|
①口口① |----|
①口口① |----|
口口口口 |----|
19
②口口④ |①---|
口①③口 |②---|
口口口口 |③---|
口口口口 |④---|
20
口口口口 |①---|
口口口口 |②---|
口①③口 |③---|
②口口④ |④---|
21
口②④口 |①---|
①口口③ |②---|
口口口口 |③---|
口口口口 |④---|
22
口口口口 |①---|
口口口口 |②---|
①口口③ |③---|
口②④口 |④---|
23
②口口④ |①---|
口①③口 |②---|
口口口口 |③---|
口口口口 |④---|
24
口口口口 |①---|
口口口口 |②---|
口①③口 |③---|
②口口④ |④---|
25
①口口① |①---|
②口口② |②---|
③口口③ |③---|
④口口④ |④---|
26
口口口口 |①---|
口①①口 |----|
口①①口 |----|
口口口口 |----|
27
④口口① |①---|
口口口口 |②---|
口口口口 |③---|
③口口② |④---|
28
口④口口 |①---|
口口口① |②---|
③口口口 |③---|
口口②口 |④---|
29
口口④口 |①---|
③口口口 |②---|
口口口① |③---|
口②口口 |④---|
30
③口口④ |①---|
口口口口 |②---|
口口口口 |③---|
②口口① |④---|
31
口口②口 |①---|
③口口口 |②---|
口口①① |③---|
口④口口 |④---|
32
口②口口 |①---|
口口口① |②---|
③口口口 |③---|
口口④口 |④---|
33
②口口① |①---|
口口口口 |②---|
口口口口 |③---|
③口口④ |④---|
34
口①①口 |①---|
口②②口 |--②-|
口③③口 |----|
口口口口 |③---|
35
④口口① |①---|
口口口口 |②---|
口口口口 |③---|
③口口② |④---|
36
口④口口 |①---|
口口口① |②---|
③口口口 |③---|
口口②口 |④---|
37
口口④口 |①---|
③口口口 |②---|
口口口① |③---|
口②口口 |④---|
38
③口口④ |①---|
口口口口 |②---|
口口口口 |③---|
②口口① |④---|
39
口口②口 |①---|
③口口口 |②---|
口口①① |③---|
口④口口 |④---|
40
口②口口 |①---|
口口①① |②---|
③口口口 |③---|
口口④口 |④---|
41
④口口④ |①-②-|
口①①口 |----|
口②②口 |--③-|
③口口③ |--④-|
42
口口口口 |----|
口①口口 |----|
口口②口 |①---|
口口口口 |②---|
43
口口口口 |①---|
口口口口 |----|
口口口口 |----|
口①口口 |----|
44
口口口① |①---|
②③口口 |----|
口口口口 |②---|
口口口口 |③---|
45
口口口口 |①---|
口口①口 |②---|
口口②口 |③---|
口口③④ |④---|
46
口口②口 |①---|
口口口口 |----|
口口口① |----|
口口口口 |②---|
47
口④口口 |①---|
口①口口 |②---|
②口口口 |③---|
口③口口 |④---|
48
④口口口 |①---|
口口①口 |②---|
口口口② |③---|
口口③口 |④---|
49
口口口口 |①---|
口②①口 |②---|
口④③口 |③---|
口口口口 |④---|
50
口口口口 |①---|
口口口口 |②---|
口口口口 |③---|
口②①③ |----|
51
口口口④ |①---|
口口③口 |②---|
口②口口 |③---|
①口口口 |④---|
52
④口口口 |①---|
口③口口 |②---|
口口②口 |③---|
口口口① |④---|
53
口①①口 |①---|
②口口② |②---|
③口口③ |③---|
口④④口 |④---|
54
④口口④ |①---|
口③③口 |②---|
口②②口 |③---|
①口口① |④---|
55
口①②口 |①---|
③口口④ |②---|
口口口口 |③---|
口口口口 |④---|
56
口口口口 |①---|
口口口口 |②---|
①口口② |③---|
口③④口 |④---|
57
④口口④ |①---|
口③③口 |②---|
口②②口 |③---|
①口口① |④---|
58
口④④口 |①---|
③口口③ |②---|
②口口② |③---|
口①①口 |④---|
59
口④④口 |①---|
口③③口 |②---|
口②②口 |③---|
口①①口 |④---|
60
口口口口 |①---|
①口口① |----|
①口口① |----|
口口口口 |----|
61
口口口口 |①---|
口口口口 |②---|
①口口④ |③---|
口②③口 |④---|
62
口口口④ |①---|
口②口口 |②---|
口口③口 |③---|
①口口口 |④---|
63
口②口④ |①---|
①口③口 |②---|
口口口口 |③---|
口口口口 |④---|
64
口②②口 |①---|
口③③口 |②---|
口④④口 |③---|
①口口口 |④---|
65
④口口② |①---|
口③③口 |②---|
口口口口 |③---|
口①①口 |④---|
66
④口口口 |①---|
口口口② |②---|
口①①口 |③---|
口③③口 |④---|
67
④口口④ |①---|
③口口③ |②---|
②口口② |③---|
①口口① |④---|
68
④口口⑤ |①-②-|
④①②⑤ |--③-|
口①②口 |--④-|
③口口③ |⑤---|
69
口口口口 |①---|
口口口口 |②---|
①口口④ |③---|
口②③口 |④---|
70
口口口④ |①---|
口②口口 |②---|
口口③口 |③---|
①口口口 |④---|
71
口②口④ |①---|
①口③口 |②---|
口口口口 |③---|
口口口口 |④---|
72
口④④口 |①---|
口③③口 |②---|
口②②口 |③---|
口①①口 |④---|
73
①口口口 |①---|
②口口口 |②---|
口口口④ |③---|
口口口③ |④---|
74
口口④口 |①---|
口口③口 |②---|
口①口口 |③---|
口②口口 |④---|
75
③口口③ |①---|
①口口① |②---|
②口口② |③---|
④口口④ |④---|
76
⑥⑤⑤⑥ |①---②-|
③④④③ |--③---|
口②②口 |④---⑤-|
口①①口 |--⑥---|
77
口口口口 |①---|
口口口口 |----|
口口口口 |----|
①口口① |----|
78
口口口口 |①---|
口口口口 |----|
口①①口 |----|
口口口口 |----|
79
①口口① |①---|
口口口口 |----|
口口口口 |----|
口口口口 |----|
80
口口口口 |①---|
口口口口 |----|
①口口① |----|
口口口口 |----|
81
口口口口 |①---|
口②②口 |----|
口①①口 |②---|
口口口口 |----|
82
①口口① |①---|
口口口口 |----|
口口口口 |②---|
②口口② |----|
83
口口口口 |①---|
口口口口 |②---|
口③④口 |③---|
口①②口 |④---|
84
口口②口 |①---|
①②②① |----|
口②口口 |②---|
口口口口 |----|
85
口②口④ |①---|
口口口口 |②---|
口口口口 |③---|
①口③口 |④---|
86
④口②口 |①---|
口口口口 |②---|
口口口口 |③---|
口③口① |④---|
87
口口口① |①---|
③口②口 |②---|
口④口口 |③---|
口口口口 |④---|
88
口②口口 |①---|
口③口口 |②---|
④口口口 |③---|
口口口① |④---|
89
②④口口 |①---|
口口口口 |②---|
口口口③ |③---|
口口①口 |④---|
90
口口④② |①---|
口口口口 |②---|
③口口口 |③---|
口①口口 |④---|
91
③口口③ |①---|
口①①口 |②---|
口②②口 |③---|
④口口④ |④---|
92
口④④口 |①---|
③口口③ |②---|
②口口② |③---|
口①①口 |④---|
93
①口口① |①---|
口②口口 |②---|
口③口口 |③---|
口④口口 |④---|
94
口口①口 |①---|
口口②口 |②---|
口口③口 |③---|
口口④口 |④---|
95
①口口口 |①---|
②口口口 |②---|
③口口口 |③---|
④口口口 |④---|
96
口口口① |①---|
口口口② |②---|
口口口③ |③---|
口口口④ |④---|
97
口口①口 |①---|
口②口口 |②---|
口口③口 |③---|
口④口口 |④---|
98
口①口口 |①---|
口口②口 |②---|
口③口口 |③---|
口口④口 |④---|
99
口口②口 |①---|
口②②口 |----|
①②②① |----|
口②口口 |--②-|

不確定度: 0

最終更新:2014年07月27日 02:24