Resurrection
Dormir

ADVANCED

Level: 6
BPM: 140
Notes: 394

1
口口口口 |----|
口口口口 |----|
口口口口 |----|
口口口口 |----|
2
口②①口 |①-②-|
⑥口④口 |③-④-|
口⑤口③ |⑤-⑥-|
口⑧⑦口 |⑦-⑧-|
3
口口口口 |①-②-|
口②⑦④ |③-④-|
①⑥③口 |⑤-⑥-|
⑤口口⑧ |⑦-⑧-|
4
口①②口 |①-②-|
口④口⑥ |③-④-|
③口⑤口 |⑤-⑥-|
口⑦⑧口 |⑦-⑧-|
5
口口口口 |①-②-|
④⑦②口 |③-④-|
口③⑥① |⑤-⑥-|
⑧口口⑤ |⑦-⑧-|
6
口②①口 |①-②-|
⑥口④口 |③-④-|
口⑤口③ |⑤-⑥-|
口⑧⑦口 |⑦-⑧-|
7
口口口口 |①-②-|
口②⑦④ |③-④-|
①⑥③口 |⑤-⑥-|
⑤口口⑧ |⑦-⑧-|
8
口①②口 |①-②-|
口④口⑥ |③-④-|
③口⑤口 |⑤-⑥-|
口⑦⑧口 |⑦-⑧-|
9
口口⑦① |①-②-|
口⑥②口 |③-④-|
口③口口 |⑤-⑥-|
④口口⑤ |⑦---|
10
①口口口 |①-②-|
口口口② |③---|
口口口口 |----|
口③③口 |----|
11
口③③口 |①-②-|
口口口口 |③---|
②口口口 |----|
口口口① |----|
12
口口口口 |①-②-|
口①④口 |③-④-|
口口②口 |----|
口③口口 |----|
13
口③③口 |①-②-|
口口口口 |③---|
口口口② |----|
①口口口 |----|
14
口口口口 |①-②-|
①口口口 |③---|
口口口② |----|
③口③口 |----|
15
③口③口 |①-②-|
口口口② |③---|
①口口口 |----|
口口口口 |----|
16
口口口口 |①-②-|
口口①口 |③---|
②口口口 |----|
④③口③ |--④-|
17
口③①③ |①-②-|
②口口口 |③-④-|
口④口④ |----|
口口口口 |----|
18
①口口口 |①-②-|
口口④② |③---|
口⑤口口 |④---|
口③③口 |⑤---|
19
口③③口 |①-②-|
④口口口 |③---|
②口口⑤ |④---|
口口口① |⑤---|
20
①口口口 |①-②-|
口口口② |③---|
口口口口
口③③口

口口口口
口口④口
口⑤口口 |④---|
口口⑥口 |⑤-⑥-|
21
口口④口 |①-②-|
③⑤口口 |③-④-|
口口⑥② |⑤---|
①口口口 |⑥---|
22
口口口⑥ |①-②-|
①口④口 |③---|
口⑤口② |④---|
③口③口 |⑤-⑥-|
23
②口②口 |①---|
口口口口 |②---|
口口口口
①口口口

口口口口
口③口口
口口④口 |③---|
⑤口口口 |④-⑤-|
24
口口口口 |①-②-|
口④①口 |③---|
②口⑤口 |④---|
⑥③口③ |⑤-⑥-|
25
口③①③ |①-②-|
②口⑤口 |③-④-|
⑥④口④ |⑤---|
口口口口 |⑥---|
26
①口口口 |①-②-|
⑧④⑦② |③-④-|
口⑥⑤口 |⑤-⑥-|
口③③口 |⑦-⑧-|
27
口③③口 |①-②-|
⑦口④口 |③-④-|
②⑤口⑧ |⑤-⑥-|
口口⑥① |⑦-⑧-|
28
⑧口口口 |①-②-|
口①④⑦ |③-④-|
⑥⑤②口 |⑤-⑥-|
口③口口 |⑦-⑧-|
29
口③③⑧ |①-②-|
②⑦④口 |③-④-|
口⑤口口 |⑤-⑥-|
口口⑥① |⑦-⑧-|
30
口口口口 |①-②-|
①⑦④口 |③-④-|
口⑤⑥② |⑤-⑥-|
③口③⑧ |⑦-⑧-|
31
③口③口 |①-②-|
⑧④口② |③-④-|
①口⑤口 |⑤-⑥-|
口⑥⑦口 |⑦-⑧-|
32
口口口口 |①-②-|
口④①⑦ |③-④-|
②⑥⑤口 |⑤-⑥-|
⑧③口③ |⑦-⑧-|
33
口③口③ |①-②-|
②⑦①口 |③-④-|
口④⑥④ |⑤-⑥-|
口⑤口口 |⑦---|
34
③口④口 |①-②-|
⑤口⑥口 |③-④-|
⑦①⑧② |⑤-⑥-|
口口口口 |⑦-⑧-|
35
口①口② |①-②-|
口③口④ |③-④-|
口⑤口⑥ |⑤-⑥-|
口⑦口⑧ |⑦-⑧-|
36
口③口④ |①-②-|
①⑤②⑥ |③-④-|
口⑦口⑧ |⑤-⑥-|
口口口口 |⑦-⑧-|
37
口口口口 |①-②-|
①⑦②⑧ |③-④-|
口⑤口⑥ |⑤-⑥-|
口③口④ |⑦-⑧-|
38
口③口④ |①-②-|
①⑤②⑥ |③-④-|
口⑦口⑧ |⑤-⑥-|
口口口口 |⑦-⑧-|
39
①口②口 |①-②-|
③口④口 |③-④-|
⑤口⑥口 |⑤-⑥-|
⑦口⑧口 |⑦-⑧-|
40
③口④口 |①-②-|
⑤①⑥② |③-④-|
⑦口⑧口 |⑤-⑥-|
口口口口 |⑦-⑧-|
41
口口口口 |①-②-|
⑦①⑧② |③-④-|
⑤口⑥口 |⑤-⑥-|
③口④口 |⑦-⑧-|
42
④③③口 |①-②-|
口口口② |③---|
口①口口 |----|
口口口口 |--④-|
43
口③口③ |①-②-|
口口口口 |③---|
口②口口
口口①口

口口口④
口口口口
口口口口 |----|
口口口口 |--④-|
44
口口③口 |①-②-|
口④口口 |③-④-|
口口②口 |----|
①口口⑤ |--⑤-|
45
口④②④ |①-②-|
①⑤口口 |③-④-|
口③⑥口 |----|
口口口口 |⑤-⑥-|
46
③口③④ |①-②-|
⑤口口口 |③---|
口口口② |----|
①口口口 |④-⑤-|
47
③口③口 |①-②-|
口口口口 |③---|
口②口口
口口口①

口口口口
口口④口
口⑤口口 |----|
口口口口 |④-⑤-|
48
口③口③ |①-②-|
口口口口 |③---|
②口口口
口口口①

口④口口
口口口口
口口口口 |----|
口口口口 |--④-|
49
口口口③ |①---|
②口①口 |②---|
口①口② |----|
口口口口 |--③-|
50
③口③口 |①-②-|
⑤口⑥口 |③-④-|
⑦④⑧② |⑤-⑥-|
口①口口 |⑦-⑧-|
51
③④口口 |①-②-|
口①口② |③-④-|
口口口口
口口口口

口口口口
口口⑤⑧
口口口⑥ |⑤-⑥-|
口⑦口口 |⑦-⑧-|
52
③口口③ |①-②-|
口口②口 |③-④-|
①口④口
口口口口

口⑤⑥口
口⑦⑧口
口口口口 |⑤-⑥-|
口口口口 |⑦-⑧-|
53
口⑥口口 |①-②-|
⑦口⑤⑧ |③-④-|
①口口④ |⑤-⑥-|
口②③口 |⑦-⑧-|
54
④③③⑤ |①-②-|
口⑧⑦口 |③-④-|
口⑥口② |⑤-⑥-|
①口口口 |⑦-⑧-|
55
⑧口口④ |①-②-|
口口⑤⑦ |③-④-|
口⑥①口 |⑤-⑥-|
②③口口 |⑦-⑧-|
56
口①①口 |①-②-|
⑤口口口 |③-④-|
②④⑦口 |⑤---|
口⑥③口 |⑥-⑦-|
57
④口口口 |①---|
口口③① |②-③-|
口口⑤口 |④---|
②口口口 |⑤---|

不確定度: 0

最終更新:2014年12月12日 00:02