ポチコの幸せな日常
NU-KO

ADVANCED

Level: 8
BPM: 192
Notes: 637

1
口口口口 |----|
口口口口 |----|
口口口口 |----|
口口口口 |----|
2
①①②② |①---|
口口口口 |②---|
口口口口 |③---|
③③④④ |④---|
3
⑤口⑧⑧ |①-②-|
口②⑥④ |③-④-|
①口③口 |⑤-⑥-|
⑦口口口 |⑦-⑧-|
4
口口口口 |--①-|
口口⑦⑤ |②-③-|
④⑥①口 |④-⑤-|
口②③口 |⑥-⑦-|
5
⑦⑦口口 |--①-|
①口⑥⑥ |②-③-|
⑤⑤口② |④-⑤-|
③口④④ |⑥-⑦-|
6
口口①① |①---|
④②口口 |②---|
口口②⑤ |③-④-|
③⑥口口 |⑤-⑥-|
7
口口口③ |①-②-|
口④口口 |③-④-|
口②口口 |----|
口口口① |----|
8
①①口口 |①---|
口⑤④③ |②---|
②②口口 |③-④-|
口口口口 |⑤---|
9
口口口口 |----|
口口口口 |----|
口口口口 |----|
口口口口 |----|
10
口口口口 |①-②-|
口①②口 |③-④-|
口④③口
口口口口

口口口⑤
⑥⑧口口
口口口口 |⑤-⑥-|
口口口⑦ |⑦-⑧-|
11
①口口口 |--①-|
口口口口 |②-③-|
口②⑤口 |----|
口口③④ |④-⑤-|
12
①①口口 |①---|
口口②② |----|
③③口口 |②---|
口口口口 |③---|
13
口口口口 |①---|
口②口口 |②-③-|
口口③口 |----|
口口①① |----|
14
⑤⑤口④ |①-②-|
③口⑥⑥ |③-④-|
⑦⑦口② |⑤-⑥-|
①口⑧⑧ |⑦-⑧-|
15
口口口口 |----|
口口口口 |----|
口口口口 |----|
口口口口 |----|
16
口口①① |①---|
③④⑤口 |②---|
口口②② |③-④-|
口口口口 |⑤---|
17
①口口口 |①-②-|
口口口② |③-④-|
③口⑥口 |⑤-⑥-|
口⑤口④ |----|
18
①②③④ |①-②-|
口⑤口⑧ |③-④-|
口口⑥口 |⑤-⑥-|
口⑦口口 |⑦-⑧-|
19
口口①口 |--①-|
②口口口 |②-③-|
口⑤口口 |----|
④口③口 |④-⑤-|
20
口口①① |①---|
②②口口 |----|
口口③③ |②---|
口口口口 |③---|
21
口口口口 |①---|
口口②口 |②-③-|
口③口口 |----|
①①口口 |----|
22
④口⑤⑤ |①-②-|
⑥⑥口③ |③-④-|
②口⑦⑦ |⑤-⑥-|
⑧⑧口① |⑦-⑧-|
23
口口口口 |----|
口口口口 |----|
口口口口 |----|
口口口口 |----|
24
①口口① |----|
口口口口 |----|
口口口口 |①---|
②口口② |②---|
25
⑤口口⑥ |①-②-|
口①②口 |③-④-|
口④③口 |⑤-⑥-|
⑧口口⑦ |⑦-⑧-|
26
口①②口 |①-②-|
⑥口口⑤ |③-④-|
⑥口口⑤ |⑤---|
口④③口 |⑥---|
27
①口口② |①-②-|
口⑤⑥口 |③-④-|
口⑧⑦口 |⑤-⑥-|
④口口③ |⑦-⑧-|
28
口⑤⑤口 |①-②-|
①口口② |③-④-|
④口口③ |⑤---|
口⑥⑥口 |⑥---|
29
⑦⑧口口 |①-②-|
⑥①②口 |③-④-|
⑤④③口 |⑤-⑥-|
口口口口 |⑦-⑧-|
30
口口①② |①-②-|
口⑤⑥③ |③-④-|
口⑦⑧④ |⑤-⑥-|
口口口口 |⑦-⑧-|
31
口口口口 |----|
口口口口 |----|
①口口口 |----|
①口口口 |①---|
32
口②③口 |①---|
④②③口 |--②-|
口④口① |③---|
口口口① |--④-|
33
口④④口 |①---|
口口口① |②-③-|
②口①③ |--④-|
⑤②③⑤ |--⑤-|
34
口口口口 |----|
口口口口 |----|
口口口口 |----|
口口口口 |----|
35
口①口⑦ |①-②-|
⑥①②口 |③---|
口③②⑤ |④-⑤-|
④③口口 |⑥-⑦-|
36
口口⑤口 |----|
⑥①①③ |①-②-|
④①①口 |③-④-|
口②口口 |⑤-⑥-|
37
①①③③ |--①-|
口口口口 |--②-|
口口口口 |----|
②②口口 |--③-|
38
口口⑦口 |--①-|
⑥口①⑦ |②-③-|
口②口⑤ |④-⑤-|
④口③口 |⑥-⑦-|
39
②④口③ |--①-|
④口口口 |--②-|
①口口④ |--③-|
③①④② |--④-|
40
②口③口 |----|
口①①口 |①-②-|
口①①口 |③---|
口④口⑤ |④-⑤-|
41
③③口口 |--①-|
①口口① |--②-|
口②②口 |----|
口口口口 |--③-|
42
口口口口 |--①-|
口⑥①口 |②-③-|
口②⑤口 |④-⑤-|
口④③口 |⑥---|
43
口口①① |①---|
②口口③ |②-③-|
口口口口
②口口③

口口④④
口口口口
口口口口 |----|
口口口口 |--④-|
44
口口口口 |--①-|
口①⑥口 |②-③-|
口⑤②口 |④-⑤-|
口③④口 |⑥---|
45
①①口口 |①---|
口口口口 |②-③-|
③口口② |----|
③口口② |----|
46
①①②② |①---|
口口口口 |②---|
口口口口 |③---|
③③④④ |④---|
47
⑤口⑧⑧ |①-②-|
口②⑥④ |③-④-|
①口③口 |⑤-⑥-|
⑦口口口 |⑦-⑧-|
48
口口口口 |--①-|
口口⑦⑤ |②-③-|
④⑥①口 |④-⑤-|
口②③口 |⑥-⑦-|
49
⑦⑦口口 |--①-|
①口⑥⑥ |②-③-|
⑤⑤口② |④-⑤-|
③口④④ |⑥-⑦-|
50
口口①① |①---|
④②口口 |②---|
口口②⑤ |③-④-|
③⑥口口 |⑤-⑥-|
51
口口口③ |①-②-|
口④口口 |③-④-|
口②口口 |----|
口口口① |----|
52
①口②口 |①-②-|
③口④口 |③-④-|
⑤口⑥口 |⑤-⑥-|
⑦口⑧口 |⑦-⑧-|
53
口①口② |①-②-|
口③口④ |③-④-|
口⑤口⑥ |⑤-⑥-|
口⑦口⑧ |⑦-⑧-|
54
口⑦口⑧ |①-②-|
口⑤口⑥ |③-④-|
③口④口 |⑤-⑥-|
①口②口 |⑦-⑧-|
55
⑦口⑧口 |①-②-|
⑤口⑥口 |③-④-|
口③口④ |⑤-⑥-|
口①口② |⑦-⑧-|
56
⑦口⑧口 |①-②-|
口⑤口⑥ |③-④-|
③口④口 |⑤-⑥-|
口①口② |⑦-⑧-|
57
口⑦口⑧ |①-②-|
⑤口⑥口 |③-④-|
口③口④ |⑤-⑥-|
①口②口 |⑦-⑧-|
58
①口②口 |①-②-|
口③口④ |③-④-|
⑤口⑥口 |⑤-⑥-|
口⑦口⑧ |⑦-⑧-|
59
口①口② |①-②-|
③口④口 |③-④-|
口⑤口⑥ |⑤-⑥-|
⑦口⑧口 |⑦-⑧-|
60
①口口① |----|
口②②口 |①---|
口③③口 |②---|
口口口口 |③---|
61
口①①口 |①---|
③口口③ |--②-|
口口口口 |----|
②口口② |--③-|
62
口口口口 |----|
口③②口 |①---|
口②③口 |②---|
口①①口 |③---|
63
口口口① |①-②-|
②口口口 |③-④-|
口口口③ |----|
④口口口 |----|
64
口⑧⑦口 |①-②-|
口⑥⑤口 |③-④-|
口④③口 |⑤-⑥-|
口②①口 |⑦-⑧-|
65
口口口口 |----|
口口口口 |----|
口口口口 |----|
口口口口 |----|
66
⑧口口⑦ |①-②-|
⑥口口⑤ |③-④-|
④口口③ |⑤-⑥-|
②口口① |⑦-⑧-|
67
口口④口 |--①-|
口②①④ |--②-|
③①②口 |--③-|
口③口口 |④---|
68
①口口口 |①---|
口口口口 |----|
口口口口 |----|
口口口① |----|
69
口⑦口口 |①-②-|
①①⑥口 |③---|
口⑤②② |④-⑤-|
③③④口 |⑥-⑦-|
70
④口口口 |----|
①①③口 |----①-|
口③口④ |②---|
口口②② |③---④-|
71
口①①口 |----①-|
③口口③ |----②-|
口口口口 |----|
②口口② |----③-|
72
口⑤⑥口 |----①-|
口③④口 |②---③-|
口①②口 |④---⑤-|
⑦口口⑦ |⑥---⑦-|
73
①口口① |----①-|
口④⑤⑤ |----|
口口③口 |②---③-|
口②口口 |④---⑤-|
74
口③③口 |----|
口口口口 |----①-|
①④④② |②---③-|
口口口口 |----④-|
75
④④口口 |----①-|
口③②口 |②---③-|
口口口口 |----|
①口口口 |----④-|
76
④④⑤⑤ |----①-|
口口口③ |②---|
口口口③ |③---|
②②①① |④-⑤-|
77
口口⑤口 |----|
⑥①①③ |①-②-|
④①①口 |③-④-|
口②口口 |⑤-⑥-|
78
①①③③ |--①-|
口口口口 |--②-|
口口口口 |----|
②②口口 |--③-|
79
口口⑥口 |----|
⑤口口⑥ |①-②-|
口①口④ |③-④-|
③口②口 |⑤-⑥-|
80
②④口③ |--①-|
④口口口 |--②-|
①口口④ |--③-|
③①④② |--④-|
81
②口③口 |----|
口①①口 |①-②-|
口①①口 |③---|
口④口⑤ |④-⑤-|
82
③③口口 |--①-|
①口口① |--②-|
口②②口 |----|
口口口口 |--③-|
83
口口⑥⑥ |--①-|
⑤口①口 |②-③-|
口②口口 |④---|
口④③口 |⑤-⑥-|
84
⑤⑤口口 |--①-|
口①口口 |②-③-|
口口②口 |④---|
口③④口 |--⑤-|
85
口口②② |--①-|
口口④口 |②-③-|
⑤③①口 |④-⑤-|
口⑦⑥口 |⑥-⑦-|
86
口口口口 |①---|
②口口① |----|
②口口口 |----|
口口口口 |--②-|
87
口口口口 |①---|
口口口① |----|
口口口① |----|
口口口口 |----|
88
①①②② |①---|
口口口口 |②---|
口口口口 |③---|
③③④④ |④---|
89
⑤口⑧⑧ |①-②-|
口②⑥④ |③-④-|
①口③口 |⑤-⑥-|
⑦口口口 |⑦-⑧-|
90
⑥⑥口口 |--①-|
⑤①口口 |②-③-|
口口口④ |④-⑤-|
口③②口 |--⑥-|
91
口口⑥⑥ |--①-|
口口①口 |②-③-|
口②⑤口 |④-⑤-|
④口口③ |--⑥-|
92
⑤口口口 |--①-|
⑦①口口 |②-③-|
口口⑥② |④-⑤-|
口③④口 |⑥-⑦-|
93
⑤口①① |--①-|
⑤口②② |②---|
④④口口 |③-④-|
③③口口 |--⑤-|
94
口①口口 |①---|
口①口口 |②-③-|
口口③② |----|
口口③② |----|

不確定度: 0

最終更新:2014年12月11日 23:58