Blue Goose
Mutsuhiko Izumi

BASIC

Level: 5
BPM: 200
Notes: 342

1
口口口口 |----|
口口口口 |----|
口口口口 |----|
口口口口 |----|
2
口②口④ |①---|
口口口口 |②---|
口口口口 |③---|
①口③口 |④---|
3
④口②口 |①---|
口口口口 |②---|
口口口口 |③---|
口③口① |④---|
4
口口口口 |①---|
口③口① |②---|
④口②口 |③---|
口口口口 |④---|
5
口口口口 |①---|
④口②口 |②---|
口③口① |③---|
口口口口 |④---|
6
①口口口 |①---|
口②口口 |②---|
口口③口 |③---|
口口口④ |④---|
7
口口口① |①---|
口口②口 |②---|
口③口口 |③---|
④口口口 |④---|
8
口口口口 |①---|
口口口口 |②---|
④口口③ |③---|
口②①口 |④---|
9
口①①口 |①---|
口口口口 |----|
口口口口 |----|
口口口口 |----|
10
口口口口 |①---|
口口口口 |----|
口①①口 |----|
口口口口 |----|
11
口口口口 |①---|
①②③口 |②---|
口口口口 |③---|
口口口口 |----|
12
口口口口 |①---|
口口口口 |②---|
口口口口 |③---|
口③②① |----|
13
口口口① |①---|
口口口② |②---|
口口口③ |③---|
口口口口 |----|
14
口①口口 |①---|
口②口口 |②---|
口③口口 |③---|
口④口口 |④---|
15
口口口口 |①---|
口③②① |②---|
口口口口 |③---|
口口口口 |----|
16
口口口口 |①---|
口口口口 |②---|
口口口口 |③---|
①②③口 |----|
17
口口口口 |①---|
口②①口 |----|
口②①口 |②---|
口口口口 |----|
18
②口口② |①---|
口口口口 |----|
口口口口 |②---|
①口口① |----|
19
口口口④ |①---|
①②③口 |②---|
口口口口 |③---|
口口口口 |④---|
20
④口口口 |①---|
口口口口 |②---|
口口口口 |③---|
口③②① |④---|
21
口口口① |①---|
口口口② |②---|
口口口③ |③---|
④口口口 |④---|
22
口①口口 |①---|
口②口口 |②---|
口③口口 |③---|
口④口口 |④---|
23
④口口口 |①---|
口③②① |②---|
口口口口 |③---|
口口口口 |④---|
24
口口口④ |①---|
口口口口 |②---|
口口口口 |③---|
①②③口 |④---|
25
口口口口 |①---|
口①②口 |----|
口①②口 |②---|
口口口口 |----|
26
②口口② |①---|
口口口口 |----|
③口口口 |②---|
①口口① |③---|
27
口口口口 |①---|
①口口③ |②---|
口口口② |③---|
④口口口 |④---|
28
口口口口 |①---|
口口口口 |②---|
①④口③ |③---|
口口口② |④---|
29
口口口口 |①---|
④①③口 |②---|
口口②口 |③---|
口口口口 |④---|
30
①口口口 |①---|
口口②口 |----|
③口口口 |②---|
口口口口 |③---|
31
口口口口 |①---|
①口口③ |②---|
口口口② |③---|
口④口口 |④---|
32
口口口口 |①---|
口口口口 |②---|
④①③口 |③---|
口口②口 |④---|
33
口口口口 |①---|
①④口③ |②---|
口口口② |③---|
口口口口 |④---|
34
口①①口 |①---|
口口口口 |----|
口②②口 |②---|
口口口口 |----|
35
①口口① |①---|
口口口口 |----|
口口口口 |②---|
②口口② |----|
36
口口口口 |①---|
①②③口 |②---|
口口口口 |③---|
口口口口 |----|
37
口口口口 |①---|
口口口口 |----|
③①①③ |②---|
②口口② |③---|
38
口③②① |①---|
口口口口 |②---|
口口口口 |③---|
口口口口 |----|
39
口口口口 |①---|
口①①口 |----|
口②②口 |②---|
口口口口 |----|
40
①口口① |①---|
口口口口 |----|
口口口口 |②---|
②口口② |----|
41
口口口口 |①---|
①口①口 |----|
②口②口 |②---|
口口口口 |----|
42
口口口口 |①---|
口口口口 |②---|
④③④③ |③---|
②①②① |④---|
43
口③口③ |①---|
②①②① |②---|
口口口口 |③---|
口口口口 |----|
44
①口口口 |①---|
口②口口 |②---|
口③口口 |③---|
口④口口 |④---|
45
口口口① |①---|
口口②口 |②---|
口口③口 |③---|
口口④口 |④---|
46
口①口口 |①---|
②口口口 |②---|
③口口口 |③---|
④口口口 |④---|
47
口口①口 |①---|
口口口② |②---|
口口口③ |③---|
口口口④ |④---|
48
口口口④ |①---|
口口③口 |②---|
口②口口 |③---|
①口口口 |④---|
49
④口口口 |①---|
口③口口 |②---|
口口②口 |③---|
口口口① |④---|
50
口口口口 |①---|
口口口口 |②---|
③口口④ |③---|
口①②口 |④---|
51
口①②口 |①---|
③口口④ |②---|
口口口口 |③---|
口口口口 |④---|
52
口口口口 |①---|
口口口口 |----|
口①口口 |----|
口口口口 |----|
53
口口口① |①---|
口口口口 |----|
口口口② |②---|
口口口口 |----|
54
口口口口 |①---|
口口①口 |----|
口口口口 |----|
口口口口 |----|
55
口口口口 |①---|
口①口口 |----|
口口口口 |②---|
口②口口 |----|
56
口口口口 |①---|
口口口口 |----|
口口①口 |----|
口口口口 |----|
57
口口②口 |①---|
①口口口 |----|
口口口口 |②---|
口口口口 |----|
58
口口口口 |①---|
口口口口 |----|
口①口口 |----|
口口口② |②---|
59
口口口口 |①---|
口口①口 |----|
口口口口 |----|
②口口口 |②---|
60
口口口口 |①---|
口①口口 |----|
口口口口 |----|
口口口口 |----|
61
口口口口 |①---|
口口口口 |----|
口口①口 |----|
口口口口 |----|
62
口口口口 |----|
口口口口 |----|
口口口口 |----|
口口口口 |----|
63
口口口口 |----|
口口口口 |----|
口口口口 |----|
口口口口 |----|
64
口口口口 |----|
口口口口 |----|
口口口口 |----|
口口口口 |----|
65
口口口口 |----|
口口口口 |----|
口口口口 |----|
口口口口 |----|
66
口口口口 |----|
口口口口 |----|
口口口口 |----|
口口口口 |----|
67
口口口口 |----|
口口口口 |----|
口口口口 |----|
口口口口 |----|
68
①口口① |①---|
②口口② |②---|
③口口③ |③---|
④口口④ |④---|
69
口①①口 |①---|
口②②口 |②---|
口③③口 |③---|
口④④口 |④---|
70
①口口口 |①---|
①口口口 |----|
口口口口 |----|
口口口口 |----|
71
口口口① |①---|
口口口① |----|
口口口口 |----|
口口口口 |----|
72
口口口口 |①---|
口①口口 |----|
口①口口 |----|
口口口口 |----|
73
口口口口 |①---|
口口①口 |----|
口口①口 |----|
口口口口 |----|
74
①①①口 |①---|
口口口口 |----|
口口口口 |----|
口口口口 |----|
75
口口口口 |①---|
口①①① |----|
口口口口 |----|
口口口口 |----|
76
口口口口 |①---|
口口口口 |----|
口②②口 |②---|
口①①口 |----|
77
①①①① |①---|
口口口口 |----|
口口口口 |②---|
②②②② |----|
78
口口口④ |①---|
①②③口 |②---|
口口口口 |③---|
口口口口 |④---|
79
④口口口 |①---|
口口口口 |②---|
口口口口 |③---|
口③②① |④---|
80
口口口① |①---|
口口口② |②---|
口口口③ |③---|
④口口口 |④---|
81
口①口口 |①---|
口②口口 |②---|
口③口口 |③---|
口④口口 |④---|
82
④口口口 |①---|
口③②① |②---|
口口口口 |③---|
口口口口 |④---|
83
口口口④ |①---|
口口口口 |②---|
口口口口 |③---|
①②③口 |④---|
84
口口口口 |①---|
口①②口 |----|
口①②口 |②---|
口口口口 |----|
85
①口口① |①---|
口口口口 |----|
③口口口 |②---|
②口口② |③---|
86
口口口口 |①---|
①口口③ |②---|
口口口② |③---|
④口口口 |④---|
87
口口口口 |①---|
口口口口 |②---|
①④口③ |③---|
口口口② |④---|
88
口口口口 |①---|
④①③口 |②---|
口口②口 |③---|
口口口口 |④---|
89
①口口口 |①---|
口口②口 |----|
③口口口 |②---|
口口口口 |③---|
90
口口口口 |①---|
①口口③ |②---|
口口口② |③---|
口④口口 |④---|
91
口口口口 |①---|
口口口口 |②---|
④①③口 |③---|
口口②口 |④---|
92
口口口口 |①---|
①④口③ |②---|
口口口② |③---|
口口口口 |④---|
93
口①①口 |①---|
口口口口 |----|
口②②口 |②---|
口口口口 |----|
94
①口口① |①---|
口口口口 |----|
口口口口 |②---|
②口口② |----|
95
①①①① |①---|
口口口口 |----|
口口口口 |②---|
②②②② |----|
96
口口口口 |----|
口口口口 |----|
口口口口 |----|
口口口口 |----|
97
口口口口 |----|
①①①① |----|
口口口口 |----|
口口口口 |①---|
98
②口口② |①---|
口口口口 |----|
口②②口 |②---|
①①①① |----|

不確定度: 0

最終更新:2014年12月11日 23:20